Ссылка на приватное зеркало нашего сайта всего за 1$. Внимание количество ограничено!!!

2 сезон

iTunes

1 сезон

1

iTunes

iTunes

iTunes

1 сезон

RePack

30

ИГРА 18+

pack

ВАЖНО

!!Акция!!

Alien_RageХит недели

RePack

MK11
pack

Забери бонус

RePack

jed

!!Акция!!

Alien_Rage

RePack

fifa19

RePack

Assassins Creed: Odyssey

RePack

NEED FOR SPEED™ PAYBACK

4 сезон

9 сезон

Бесстыжие 9 сезон

Все сериалы

все сериалы на PB.wtf

RePack

FAR CRY 5
  

Ёлки 3 (Ольга Харина, Дмитрий Киселёв, Александр Котт) [2013, Россия, семейный, комедия, DVDRip-AVC] pb.wtf

Ёлки 3 через торрент pb.wtf

Размер: 1.41 GB | Добавлен: 6 лет 9 мес. назад | Торрент скачан:299 раз
Скачать  

19-01-2014 13:53 Ёлки 3 Скачать торрент  


Ёлки 3

«Вместе теплее»

Год выпуска:2013
Страна:Россия
Жанр:семейный, комедия

Продолжительность: 01:32:57
Перевод:Не требуется

Субтитры: Нет
Режиссер:Ольга Харина, Дмитрий Киселёв, Александр Котт
В ролях:Иван Ургант (Боря), Сергей Светлаков (Женя), Гоша Куценко (Андрей), Валентин Гафт (Николай Петрович), Татьяна Догилева (Марта Петровна), Пётр Фёдоров (Коля), Анна Чиповская (Лена), Мария Шукшина (Наташа), Константин Хабенский (рассказчик, озвучка), Антон Богданов (Денис), Мария Луговая (Маша), Александр Головин (сноубордист)
  • Описание:
    Спустя два года они снова с нами: любимые герои «Ёлок» в самых невероятных новогодних историях. Боря и Женя, чьи годовалые дети в канун праздника доведут друзей до психушки. Маленькая девочка Настя, чьи родители разлучат ее влюбленных друг в друга собак. Лыжник и сноубордист в самой экстремальной в их жизни гонке - от военкома. И профессор из Екатеринбурга Андрей, чья любвеобильность вновь не доведет его до добра, а только до проруби в минус 30.
    Под бой курантов этих и новых героев «Ёлок» объединит бумеранг добра. Завершая свой круг, он заслуженно вернётся к каждому, кто его однажды запустил - кому улыбками и объятиями любимых и друзей, кому - праздничным настроением и соответствующим градусу состоянием, а кому-то... телефоном в холодце!

    Качество:DVDRip-AVC
    Формат:MKV
    Видео кодек: XviD
    Аудио кодек:AC3
    Видео: AVC, 720x440@1024x440 (2.35:1), 1728 kbps, 25 fps, 0,218 bpp
    Аудио: AC3 / 5.1 / 48 kHz / 448 kbps / 16 bit

Код:

General
Unique ID                                : 198172257643124360580390154507218347533 (0x951696A8DD60076F84CACE144DD4660D)
Complete name                            : D:ТорентыElki.3.2013.x264.DVDRip.mkv
Format                                   : Matroska
Format version                           : Version 2
File size                                : 1.41 GiB
Duration                                 : 1h 32mn
Overall bit rate                         : 2 178 Kbps
Encoded date                             : UTC 2014-01-19 08:23:19
Writing application                      : mkvmerge v6.5.0 ('Isn't she lovely') built on Oct 20 2013 12:50:05
Writing library                          : libebml v1.3.0 + libmatroska v1.4.1

Video
ID                                       : 1
Format                                   : AVC
Format/Info                              : Advanced Video Codec
Format profile                           : High@L4.1
Format settings, CABAC                   : Yes
Format settings, ReFrames                : 10 frames
Codec ID                                 : V_MPEG4/ISO/AVC
Duration                                 : 1h 32mn
Bit rate                                 : 1 728 Kbps
Width                                    : 720 pixels
Height                                   : 440 pixels
Display aspect ratio                     : 2.35:1
Frame rate                               : 25.000 fps
Color space                              : YUV
Chroma subsampling                       : 4:2:0
Bit depth                                : 8 bits
Scan type                                : Progressive
Bits/(Pixel*Frame)                       : 0.218
Stream size                              : 1.10 GiB (77%)
Writing library                          : x264 core 138 r2358 9e941d1
Encoding settings                        : cabac=1 / ref=10 / deblock=1:-3:-3 / analyse=0x3:0x133 / me=umh / subme=7 / psy=1 / psy_rd=1.00:0.00 / mixed_ref=1 / me_range=16 / chroma_me=1 / trellis=2 / 8x8dct=1 / cqm=0 / deadzone=21,11 / fast_pskip=1 / chroma_qp_offset=-2 / threads=12 / lookahead_threads=3 / sliced_threads=0 / nr=0 / decimate=1 / interlaced=0 / bluray_compat=0 / constrained_intra=0 / bframes=5 / b_pyramid=2 / b_adapt=2 / b_bias=0 / direct=3 / weightb=1 / open_gop=0 / weightp=2 / keyint=250 / keyint_min=23 / scenecut=40 / intra_refresh=0 / rc_lookahead=40 / rc=2pass / mbtree=1 / bitrate=1728 / ratetol=1.0 / qcomp=0.60 / qpmin=10 / qpmax=51 / qpstep=4 / cplxblur=20.0 / qblur=0.5 / ip_ratio=1.40 / aq=1:1.00
Language                                 : English
Default                                  : Yes
Forced                                   : No

Audio
ID                                       : 2
Format                                   : AC-3
Format/Info                              : Audio Coding 3
Mode extension                           : CM (complete main)
Codec ID                                 : A_AC3
Duration                                 : 1h 32mn
Bit rate mode                            : Constant
Bit rate                                 : 448 Kbps
Channel(s)                               : 6 channels
Channel positions                        : Front: L C R, Side: L R, LFE
Sampling rate                            : 48.0 KHz
Bit depth                                : 16 bits
Compression mode                         : Lossy
Stream size                              : 298 MiB (21%)
Default                                  : Yes
Forced                                   : No


Скриншоты:

Трейлеры к фильмам [2014]

© Оформление by Vetal
pb.wtf



Скачать Ёлки 3 через торрент http://pic.kartinco.top/images/6/ordi9.jpg Скачать фильм Ёлки 3 через торрент бесплантно в хорошем качестве Описание:Спустя два года они снова с нами: любимые герои «Ёлок» в самых невероятных новогодних историях. Боря и Женя, чьи годовалые дети в ... 10 10 7
Info! Золотая раздача, скачанное не засчитывается.
Торрент: Зарегистрирован [2014-01-19 13:53] · скачан: 299 раз
Статус: √ проверено
Размер: 1.41 GB
Как cкачать? Как скачать Ёлки 3 через торрент | qTorrent

% Раздел Тема Автор DL S | L
Другие симуляторы [ 723 MB ] Русская рыбалка Installsoft Edition [ Rus Симулятор рыбалки] ЗлостныйПират Скачать
1 | 0
TNT serials [ 11.91 GB ] Родители / Сезон: 3 / Серии: 1-16 из 20 [2020 WEBRip 1080p] bober100 Скачать
1 | 0
TNT serials [ 5.28 GB ] Родители / Сезон: 3 / Серии: 1-18 из 20 [2020 WEBRip] bober100 Скачать
1 | 0
Детективы, Боевики, Триллеры [ 480 MB ] Мастер Чэнь - Шпион из Калькутты 3. Амалия и Золотой век [Абалкина Мария 2019 96 kbps MP3] bober100 Скачать
1 | 0
Наши сериалы [ 44.32 GB ] Маргоша 3 / Серии 1-90 из 90 [2010 драмеди IPTVRip] shk0der Скачать
1 | 0
Фантастика [ 1.15 GB ] Смородинский Георгий - Семнадцатое обновление 3. Стальные Волки Крейда [Геннадий Коршунов 2016 192 kbps MP3] bober100 Скачать
1 | 0
Детективы, Боевики, Триллеры [ 432 MB ] Алан Брэдли - Загадки Флавии де Люс 3. Копченая селедка без горчицы [Мария Абалкина 2017 96 kbps MP3] bober100 Скачать
1 | 0

28-11-2019 20:33  

Отключить всю рекламу на сайте

19-01-2014 16:23 Ёлки 3 Скачать торрент  

Спасибо будет что вечером поглядеть pb.wtf



19-01-2014 17:07 Ёлки 3 Скачать торрент  

Ёлки 3 -Ёлки 3 (Дополнительные материалы)pb.wtf



    Дорогой пользователь! Огромная просьба, поблагодарите релизера, оцените раздачу и оставьте свои комментарий, если Вы скачали Ёлки 3 через торрент бесплатно! Внесите свою лепту в развитие PiratBit!
    Комментировать посты могут только пользователи прошедшие не сложную регистрацию
    Показать сообщения:    

    Ёлки 3 через торрент
    Скачать бесплатно Ёлки 3
    Ёлки 3 скачать торрент
    Ёлки 3 смотреть онлайн
    Cкачать фильм Ёлки 3 бесплатно
    Ёлки 3 скачать торрент в хорошем качестве
    Ёлки 3 смотреть онлайн бесплатно в хорошем качестве


    Вы не можете начинать темы
    Вы не можете отвечать на сообщения
    Вы не можете редактировать свои сообщения
    Вы не можете удалять свои сообщения
    Вы не можете голосовать в опросах
    Вы не можете прикреплять файлы к сообщениям
    Вы можете скачивать файлы