Ссылка на приватное зеркало нашего сайта всего за 1$. Внимание количество ограничено!!!

2 сезон

iTunes

1 сезон

1

2 сезон

2 сезон

iTunes

1 сезон

RePack

30

Новинка

ВАЖНО

ИГРА 18+

pack

RePack

MK11
pack

Забери бонус

RePack

jed

!!Акция!!

Alien_Rage

RePack

fifa19

RePack

Assassins Creed: Odyssey

RePack

NEED FOR SPEED™ PAYBACK

4 сезон

9 сезон

Бесстыжие 9 сезон

Все сериалы

все сериалы на PB.wtf

RePack

FAR CRY 5
  

Миллеры в разводе / The Millers / Сезон: 1 / Серии: 1-12 из ?? (Джеймс Берроуз) [2013, США, комедия, WEB-DL 720p] MVO [Амедиа] + Original pb.wtf

Миллеры в разводе через торрент pb.wtf

Размер: 8.7 GB | Добавлен: 6 лет 10 мес. назад | Торрент скачан:35 раз
Скачать  

19-01-2014 20:02 Миллеры в разводе Скачать торрент  

Миллеры в разводе / The Millers

Год выпуска: 2013
Страна: США
Жанр: комедия
Продолжительность: 00:20:01
Перевод: |Профессиональный (многоголосый, закадровый) , Амедиа|
Субтитры: Английские
Режиссер: Джеймс Берроуз / James Burrows
В ролях: Уилл Арнетт (Nathan Miller), Марго Мартиндейл (Carol Miller), Бо Бриджес (Tom Miller), Дж.Б. Смув (Ray), Ив Мун (Mikayla), Нельсон Франклин (Adam), Джейма Мейс (Debbie), Джилл Е. Александр (On Demand Assistant), Гаррет Райан (Young Nathan), Алексис Краузе (Trisha), Мэри Гиллис (June), Трейс Гарсиа (Zachary)
Описание:
Недавно разведенный репортер с нетерпением жаждет вновь окунуться во все прелести холостяцкой жизни, пока семейные проблемы его родителей не срывают все планы...
Рейтинг


Качество: WEB-DL 720p
Формат: MKV
Видео кодек: AVC
Аудио кодек: AC3
Видео: AVC, 1280x720 (16:9), 3951 kbps, 23,976 fps, 0,179 bpp
Аудио №1: русский / AC3 / 5.1 / 48 kHz / 384 kbps / 16 bit |Кравец по заказу Amedia|
Аудио №2: английский / AC3 / 5.1 / 48 kHz / 384 kbps / 16 bit
Оформление: Messa-fan

WEB-DL: iSuX, BS
Запись и сведение: BS666
Озвучка: Кравец по заказу Amedia
Постер: BS666

Код:

Спасибо за консультации и помощь в сведении 6 серии kmarats

General
Unique ID : 214549264021298529270400837063524933754 (0xA168AF6A15E2FAA6899A758B864EE07A)
Complete name : The.Millers.S01.720p.WEB-DL.DD5.1.H.264-BS666 | The.Millers.S01E01.Pilot.720p.WEB-DL.DD5.1.H.264-BS666.mkv
Format : Matroska
Format version : Version 4 / Version 2
File size : 738 MiB
Duration : 21mn 41s
Overall bit rate : 4 754 Kbps
Movie name : The.Millers.S01E01.Pilot.720p.WEB-DL.DD5.1.H.264-BS666 (CasStudio.TV)
Encoded date : UTC 2013-10-04 22:36:01
Writing application : mkvmerge v6.4.1 ('Omega Point') built on Sep 16 2013 22:05:10
Writing library : libebml v1.3.0 + libmatroska v1.4.1

Video
ID : 1
Format : AVC
Format/Info : Advanced Video Codec
Format profile : High@L3.1
Format settings, CABAC : No
Format settings, ReFrames : 2 frames
Codec ID : V_MPEG4/ISO/AVC
Duration : 21mn 41s
Bit rate : 3 892 Kbps
Width : 1 280 pixels
Height : 720 pixels
Display aspect ratio : 16:9
Frame rate : 23.976 fps
Color space : YUV
Chroma subsampling : 4:2:0
Bit depth : 8 bits
Scan type : Progressive
Bits/(Pixel*Frame) : 0.176
Stream size : 604 MiB (82%)
Language : English
Default : Yes
Forced : No
Color primaries : BT.709-5, BT.1361, IEC 61966-2-4, SMPTE RP177
Transfer characteristics : BT.709-5, BT.1361
Matrix coefficients : BT.709-5, BT.1361, IEC 61966-2-4 709, SMPTE RP177

Audio #1
ID : 2
Format : AC-3
Format/Info : Audio Coding 3
Mode extension : CM (complete main)
Format settings, Endianness : Big
Codec ID : A_AC3
Duration : 21mn 41s
Bit rate mode : Constant
Bit rate : 384 Kbps
Channel(s) : 6 channels
Channel positions : Front: L C R, Side: L R, LFE
Sampling rate : 48.0 KHz
Bit depth : 16 bits
Compression mode : Lossy
Stream size : 59.6 MiB (8%)
Language : Russian
Default : Yes
Forced : No

Audio #2
ID : 3
Format : AC-3
Format/Info : Audio Coding 3
Mode extension : CM (complete main)
Format settings, Endianness : Big
Codec ID : A_AC3
Duration : 21mn 41s
Bit rate mode : Constant
Bit rate : 384 Kbps
Channel(s) : 6 channels
Channel positions : Front: L C R, Side: L R, LFE
Sampling rate : 48.0 KHz
Bit depth : 16 bits
Compression mode : Lossy
Stream size : 59.6 MiB (8%)
Language : English
Default : No
Forced : No

Text
ID : 4
Format : UTF-8
Codec ID : S_TEXT/UTF8
Codec ID/Info : UTF-8 Plain Text
Title : CC
Language : English
Default : No
Forced : No


Внимание! Раздача ведётся путём добавления новых серий; при каждом добавлении создётся новый торрент. Чтобы начать докачку новой серии, пользователям необходимо сделать следующее:
(1) остановить скачивание,
(2) удалить старый торрент у себя из клиента (старые серии удалять не надо),
(3) скачать новый торрент и запустить его у себя в клиенте вместо старого, при этом указать клиенту путь в старую папку куда и должно происходить скачивание новых серий.
Ваш клиент при этом должен произвести хеширование (проверку) старой папки (если не производит сам - помогите ему сделать это), и будет докачивать только те серии которых у вас ещё нет. Старые серии при этом не удаляются, а продолжают раздаваться!
Eсли вы уже удалили старые серии, то предотвратить повторную закачку старых серий можно, отжав галочку в соответсвующих местах при запуске нового торрента. По возможности, желательно не удалять старые серии как можно дольше чтобы релизёр не столько продолжал раздавать старые серии, а смог сконцентрироваться на новых.
pb.wtf



Скачать Миллеры в разводе через торрент http://i2.imageban.ru/out/2014/01/19/abcb0642eff72ff342b5b53fb21ad139.jpg Скачать фильм Миллеры в разводе через торрент бесплантно в хорошем качестве Описание: Недавно разведенный репортер с нетерпением жаждет вновь окунуться во все прелести холостяцкой жизни, пока семейные проблемы его ... 9 10 3
Info! Золотая раздача, скачанное не засчитывается.
Торрент: Зарегистрирован [2014-01-19 20:02] · скачан: 35 раз
Статус: √ проверено
Размер: 8.7 GB
Как cкачать? Как скачать Миллеры в разводе через торрент | qTorrent

28-11-2019 20:33  

Отключить всю рекламу на сайте

    Дорогой пользователь! Огромная просьба, поблагодарите релизера, оцените раздачу и оставьте свои комментарий, если Вы скачали Миллеры в разводе через торрент бесплатно! Внесите свою лепту в развитие PiratBit!
    Комментировать посты могут только пользователи прошедшие не сложную регистрацию
    Показать сообщения:    

    Миллеры в разводе через торрент
    Скачать бесплатно Миллеры в разводе
    Миллеры в разводе скачать торрент
    Миллеры в разводе смотреть онлайн
    Cкачать фильм Миллеры в разводе бесплатно
    Миллеры в разводе скачать торрент в хорошем качестве
    Миллеры в разводе смотреть онлайн бесплатно в хорошем качестве


    Вы не можете начинать темы
    Вы не можете отвечать на сообщения
    Вы не можете редактировать свои сообщения
    Вы не можете удалять свои сообщения
    Вы не можете голосовать в опросах
    Вы не можете прикреплять файлы к сообщениям
    Вы можете скачивать файлы