2 сезон

iTunes

MVO

1

2 сезон

iTunes

iTunes

1 сезон

RePack

30

Ultimate

ВАЖНО

ИГРА 18+

pack

RePack

MK11
pack

Легкие деньги

RePack

jed

RePack

fifa19

RePack

RDR2

RePack

NEED FOR SPEED™ PAYBACK

4 сезон

9 сезон

Бесстыжие 9 сезон

Все сериалы

все сериалы на PB.wtf

RePack

FAR CRY 5

Anonymous, доброй ночи, мы не успеваем собрать деньги на оплату серверов за декабрь и январь, помогите нам пожалуйста в это трудное время. В качестве благодарности мы отключим Вам всю рекламу на сайте (укажите свой ник в строку Ваше имя)!

×
  
Magnet ссылка

Serebro - Сладко [2010 г., Рор, Dance Master] pb.wtf

Serebro - Сладко через торрент pb.wtf

Размер: 583 MB | Добавлен: 6 лет 11 мес. назад | Торрент скачан:170 раз
Скачать  

20-01-2014 06:38 Serebro - Сладко Скачать торрент  

Serebro - Сладко
Год выпуска: 2010
Страна: Россия
Жанр: Рор, Dance,
Продолжительность: 00:03:43

Качество:Master
Формат: Mov
Видео кодек: H.264
Аудио кодек: AAC
Видео: AVC, 1920x817, 21.7 (Mbps), 25.000 (fps)
Аудио: AAC, 128 (kbps), 48.0 (kHz), 2 (ch)






General
Complete name : C:UsersEddyVideosТорентыSerebro - Sladko (AAC-Master-1080p-H264).mov
Format : MPEG-4
Format profile : QuickTime
Codec ID : qt
File size : 583 MiB
Duration : 3mn 43s
Overall bit rate : 21.9 Mbps
Encoded date : UTC 2012-01-06 19:05:32
Tagged date : UTC 2012-01-06 19:32:09
Writing library : Apple QuickTime
Media/UUID : 3EA8054A-2322-4559-8CF3-2E5486936A19
©TIM : 00:00:00:00
©TSC : 25
©TSZ : 1

Video
ID : 1
Format : AVC
Format/Info : Advanced Video Codec
Format profile : Main@L4.1
Format settings, CABAC : No
Format settings, ReFrames : 2 frames
Codec ID : avc1
Codec ID/Info : Advanced Video Coding
Duration : 3mn 43s
Bit rate : 21.7 Mbps
Width : 1 920 pixels
Height : 817 pixels
Original height : 818 pixels
Display aspect ratio : 2.35:1
Original display aspect ratio : 2.35:1
Frame rate mode : Constant
Frame rate : 25.000 fps
Color space : YUV
Chroma subsampling : 4:2:0
Bit depth : 8 bits
Scan type : Progressive
Bits/(Pixel*Frame) : 0.554
Stream size : 579 MiB (99%)
Language : English
Encoded date : UTC 2012-01-06 19:31:42
Tagged date : UTC 2012-01-06 19:32:09
Color primaries : BT.709
Transfer characteristics : BT.709
Matrix coefficients : BT.709

Audio
ID : 2
Format : AAC
Format/Info : Advanced Audio Codec
Format profile : LC
Codec ID : 40
Duration : 3mn 43s
Source duration : 3mn 43s
Bit rate mode : Constant
Bit rate : 128 Kbps
Channel(s) : 2 channels
Channel positions : Front: L R
Sampling rate : 48.0 KHz
Compression mode : Lossy
Stream size : 3.30 MiB (1%)
Source stream size : 3.30 MiB (1%)
Language : English
Encoded date : UTC 2012-01-06 19:31:42
Tagged date : UTC 2012-01-06 19:32:09

Menu
ID : 3
Duration : 3mn 43s
Language : English
Encoded date : UTC 2012-01-06 19:32:09
Tagged date : UTC 2012-01-06 19:32:09

pb.wtf



Скачать Serebro - Сладко через торрент http://pic.kartinco.top/images/6/dzytf.jpg Скачать фильм Serebro - Сладко [2010 г., Рор, Dance Master]через торрент бесплантно в хорошем качестве Год выпуска: 2010Страна: РоссияЖанр: Рор, Dance,Продолжительность: ... 10 10 12
Info! Золотая раздача, скачанное не засчитывается.
Торрент: Зарегистрирован [2014-01-20 06:38] · скачан: 170 раз
Статус: √ проверено
Размер: 583 MB
Как cкачать? Как скачать Serebro - Сладко через торрент | UTorrent

28-11-2019 20:33  

Отключить всю рекламу на сайте

    Дорогой пользователь! Огромная просьба, поблагодарите релизера, оцените раздачу и оставьте свои комментарий, если Вы скачали Serebro - Сладко через торрент бесплатно! Внесите свою лепту в развитие PiratBit!
    Комментировать посты могут только пользователи прошедшие не сложную регистрацию
    Показать сообщения:    

    Serebro - Сладко через торрент
    Скачать бесплатно Serebro - Сладко
    Serebro - Сладко скачать торрент
    Serebro - Сладко смотреть онлайн
    Cкачать фильм Serebro - Сладко бесплатно
    Serebro - Сладко скачать торрент в хорошем качестве
    Serebro - Сладко смотреть онлайн бесплатно в хорошем качестве


    Вы не можете начинать темы
    Вы не можете отвечать на сообщения
    Вы не можете редактировать свои сообщения
    Вы не можете удалять свои сообщения
    Вы не можете голосовать в опросах
    Вы не можете прикреплять файлы к сообщениям
    Вы можете скачивать файлы