Присоединяйтесь к нам в Telegram!, здесь всегда актуальный адрес сайта, оперативная поддержка и многое другое!!

>

5.9

iTunes

7.4

iTunes

9.4

1 сезон

1

7.4

2 сезон

7.2

iTunes

7.3

1 сезон

13

6.1

iTunes

8.3

GOG

30

ULTIMATE

pack

9.9

Лицензия

ВАЖНО

ИГРА 18+

pack

7.3

RePack

MK11

7.7

RePack

jed

7.8

RePack

fifa19

8.5

RePack

RDR2

RePack

NEED FOR SPEED™ PAYBACK

5 сезон

9 сезон

Бесстыжие 9 сезон

Все сериалы

все сериалы на PB.wtf

RePack

FAR CRY 5

Anonymous, доброй ночи, мы катастрофически не успеваем собрать деньги на оплату серверов, помогите нам пожалуйста 5,10,15р., для нас важна любая помощь . В качестве благодарности мы отключим Вам всю рекламу на сайте (укажите свой ник в строку Ваше имя)!

×
  
Magnet ссылка

Serebro - Gun [2012 г., Рор/Dance, HDTV 720p] pb.wtf

Serebro - Gun [2012 г., Рор через торрент pb.wtf

Размер: 119 MB | Добавлен: 7 лет 10 мес. назад | Торрент скачан:193 раза
Смотреть онлайн Serebro - Gun [2012 г., Рор | Скачать    Ребята, помогите собрать деньги на оплату серверов!!!

20-01-2014 06:54 Serebro - Gun [2012 г., Рор Скачать торрент  

Serebro - Gun
Год выпуска: 2012
Страна: Россия
Жанр: Рор/Dance,
Продолжительность: 00:03:09

Качество: HDTV 720p
Формат: MKV
Видео кодек: MPEG4
Аудио кодек: MP3
Видео: MPEG-4 AVC Video, 1280х720 (1.782) 25 fps, 5000 Kbps
Аудио: MP3 , 2(ch) Front: L R, 48,0 kHz, 234 Kbps






General
Unique ID : 233830885738999747877595869084877739995 (0xAFEA30C3154AD5B3869BB74AF63A57DB)
Complete name : C:UsersEddyVideosТорентыserebro-gun-ddc-720p-x264-2012-pmv_int.mkv
Format : Matroska
Format version : Version 2
File size : 119 MiB
Duration : 3mn 9s
Overall bit rate mode : Variable
Overall bit rate : 5 248 Kbps
Encoded date : UTC 2012-10-10 20:34:21
Writing application : mkvmerge v5.6.0 ('Kenya Kane') built on May 27 2012 16:44:04
Writing library : libebml v1.2.3 + libmatroska v1.3.0

Video
ID : 1
Format : AVC
Format/Info : Advanced Video Codec
Format profile : High@L4.1
Format settings, CABAC : Yes
Format settings, ReFrames : 5 frames
Codec ID : V_MPEG4/ISO/AVC
Duration : 3mn 9s
Bit rate : 5 000 Kbps
Width : 1 280 pixels
Height : 720 pixels
Display aspect ratio : 16:9
Original display aspect ratio : 16:9
Frame rate mode : Constant
Frame rate : 25.000 fps
Color space : YUV
Chroma subsampling : 4:2:0
Bit depth : 8 bits
Scan type : Progressive
Bits/(Pixel*Frame) : 0.217
Stream size : 111 MiB (94%)
Writing library : x264 core 125 r2200 999b753
Encoding settings : cabac=1 / ref=5 / deblock=1:0:0 / analyse=0x3:0x133 / me=umh / subme=9 / psy=1 / psy_rd=1.00:0.00 / mixed_ref=1 / me_range=24 / chroma_me=1 / trellis=1 / 8x8dct=1 / cqm=0 / deadzone=21,11 / fast_pskip=1 / chroma_qp_offset=-2 / threads=12 / lookahead_threads=2 / sliced_threads=0 / nr=0 / decimate=1 / interlaced=0 / bluray_compat=0 / constrained_intra=0 / bframes=16 / b_pyramid=2 / b_adapt=1 / b_bias=0 / direct=1 / weightb=1 / open_gop=0 / weightp=2 / keyint=250 / keyint_min=25 / scenecut=40 / intra_refresh=0 / rc_lookahead=40 / rc=2pass / mbtree=1 / bitrate=5000 / ratetol=1.0 / qcomp=0.60 / qpmin=10 / qpmax=51 / qpstep=4 / cplxblur=20.0 / qblur=0.5 / ip_ratio=1.40 / aq=1:1.00
Language : English
Default : Yes
Forced : No

Audio
ID : 2
Format : MPEG Audio
Format version : Version 1
Format profile : Layer 3
Mode : Joint stereo
Mode extension : MS Stereo
Codec ID : A_MPEG/L3
Codec ID/Hint : MP3
Duration : 3mn 9s
Bit rate mode : Variable
Bit rate : 234 Kbps
Minimum bit rate : 32.0 Kbps
Channel(s) : 2 channels
Sampling rate : 44.1 KHz
Compression mode : Lossy
Stream size : 5.28 MiB (4%)
Writing library : LAME3.98r
Encoding settings : -m j -V 0 -q 0 -lowpass 19.5 --vbr-new -b 32
Default : Yes
Forced : No

pb.wtf



Скачать Serebro - Gun [2012 г., Рор через торрент https://pic1.kartinco.top/images/61/t56zr.jpg Скачать, смотреть онлайн Serebro - Gun [2012 г., Рор бесплантно в хорошем качестве Год выпуска: 2012Страна: РоссияЖанр: Рор/Dance,Продолжительность: ... 9.9 10 13
Info! Золотая раздача, скачанное не засчитывается.
Торрент: Зарегистрирован [2014-01-20 06:54] · скачан: 193 раз
Статус: √ проверено
Размер: 119 MB
Как cкачать? Как скачать Serebro - Gun [2012 г., Рор через торрент | UTorrent

% Раздел Тема Автор DL S | L
Серверные ОС от Microsoft [ 1.7 GB ] Windows Server 2016 TP3 DataCenter x64 v.10537 PIP-GAM den7z8 Скачать
1 | 0

28-11-2019 20:33  

Отключить всю рекламу на сайте

    Дорогой пользователь! Огромная просьба, поблагодарите релизера, оцените раздачу и оставьте свои комментарий, если Вы скачали Serebro - Gun [2012 г., Рор через торрент бесплатно!
    Комментировать посты могут только пользователи прошедшие не сложную регистрацию
    Показать сообщения:    

    Serebro - Gun [2012 г., Рор через торрент
    Скачать бесплатно Serebro - Gun [2012 г., Рор
    Serebro - Gun [2012 г., Рор скачать торрент
    Serebro - Gun [2012 г., Рор смотреть онлайн
    Cкачать фильм Serebro - Gun [2012 г., Рор бесплатно
    Serebro - Gun [2012 г., Рор скачать торрент в хорошем качестве
    Serebro - Gun [2012 г., Рор смотреть онлайн бесплатно в хорошем качестве


    Вы не можете начинать темы
    Вы не можете отвечать на сообщения
    Вы не можете редактировать свои сообщения
    Вы не можете удалять свои сообщения
    Вы не можете голосовать в опросах
    Вы не можете прикреплять файлы к сообщениям
    Вы можете скачивать файлы