новый адрес
Ссылка на приватное зеркало всего за 1$. Внимание количество ограничено!!!

iTunes

1+1

iTunes

мы

WEB-DL

1

iTunes

Чернобыль

iTunes

Ральф против интернета

Лицензия

ПШазам

Лицензия

Оно 2

Лицензия

30
pack

Вам бонус

ВАЖНО

!!Акция!!

Alien_RageХит недели

RePack

Resident Evil 21

ИГРА 18+

pack

RePack

jed

!!Акция!!

Alien_Rage

RePack

fifa19

RePack

Assassins Creed: Odyssey

RePack

NEED FOR SPEED™ PAYBACK

3 сезон

9 сезон

Бесстыжие 9 сезон

Все сериалы

все сериалы на PB.wtf

RePack

FAR CRY 5
Ребята, катастрофически не хватает 1900р. для оплаты серверов за Октябрь (всвязи с блокировками трафик упал в 3 раза), 1-2р., выручайте.
  

Возмутитель спокойствия / Borgman (Алекс ван Вармердам / Alex van Warmerdam) [2013, Нидерланды, Бельгия, триллер, DVDRip,Любительский (одноголосый)[Xixidok] pb.wtf

Возмутитель спокойствия через торрент pb.wtf

Размер: 749 MB | Добавлен: 5 лет 10 мес. назад | Торрент скачан:86 раз
Скачать  

20-01-2014 07:58 Возмутитель спокойствия Скачать торрент  


Возмутитель спокойствия / Borgman


Год выпуска:2013
Страна:Нидерланды, Бельгия
Жанр:триллер

Продолжительность: 01:48:41
Перевод:Любительский (одноголосый)[Xixidok]

Субтитры: Нет
Режиссер:Алекс ван Вармердам / Alex van Warmerdam
В ролях:Ян Бейвут (Camiel Borgman), Хадевих Минис (Marina), Джероен Персеваль (Richard), Алекс ван Вармердам (Ludwig), Том Девиспелар (Pascal), Сара Йорт Дитлевсен (Stine), Элве Лейбарт (Isolde), Диркье ван дер Пейл (Rebecca), Питер-Бас де Вард (Leo), Ева ван де Вийдевен (Ilonka), Аннет Мальэрб (Brenda), Гене Бервутс (Gardener)
  • Описание:
    То ли демон из ночных кошмаров, то ли аллегория, то ли ожившее воплощение всех человеческих страхов - Боргман, словно злой дух современного города, загнанный за красивые фасады, вырывается на волю. Размеренная жизнь обычной семьи с его появлением уже никогда не вернется в прежнее русло...

    Качество:DVDRip
    Формат:AVI
    Видео кодек: XviD
    Аудио кодек:MP3
    Видео: XviD, 624x256 (2.40:1), 762 kbps, 25 fps, 0,191 bpp
    Аудио: MP3 / 2.0 / 44 kHz / 192 kbps /

Код:

General
Complete name                            : D:ТорентыBorgman.2013.Xixidok.avi
Format                                   : AVI
Format/Info                              : Audio Video Interleave
File size                                : 749 MiB
Duration                                 : 1h 48mn
Overall bit rate                         : 964 Kbps
Writing application                      : VirtualDubMod 1.5.10.3 (build 2550/release)
Writing library                          : VirtualDubMod build 2550/release

Video
ID                                       : 0
Format                                   : MPEG-4 Visual
Format profile                           : Advanced Simple@L5
Format settings, BVOP                    : 1
Format settings, QPel                    : No
Format settings, GMC                     : No warppoints
Format settings, Matrix                  : Default (MPEG)
Muxing mode                              : Packed bitstream
Codec ID                                 : XVID
Codec ID/Hint                            : XviD
Duration                                 : 1h 48mn
Bit rate                                 : 762 Kbps
Width                                    : 624 pixels
Height                                   : 256 pixels
Display aspect ratio                     : 2.40:1
Frame rate                               : 25.000 fps
Color space                              : YUV
Chroma subsampling                       : 4:2:0
Bit depth                                : 8 bits
Scan type                                : Progressive
Compression mode                         : Lossy
Bits/(Pixel*Frame)                       : 0.191
Stream size                              : 593 MiB (79%)
Writing library                          : XviD 1.2.1 (UTC 2008-12-04)

Audio
ID                                       : 1
Format                                   : MPEG Audio
Format version                           : Version 1
Format profile                           : Layer 3
Codec ID                                 : 55
Codec ID/Hint                            : MP3
Duration                                 : 1h 48mn
Bit rate mode                            : Constant
Bit rate                                 : 192 Kbps
Channel(s)                               : 2 channels
Sampling rate                            : 44.1 KHz
Compression mode                         : Lossy
Delay relative to video                  : 18ms
Stream size                              : 149 MiB (20%)
Alignment                                : Split accross interleaves
Interleave, duration                     : 40 ms (1.00 video frame)
Interleave, preload duration             : 500 ms


Скриншоты:

Трейлеры к фильмам [2014]

© Оформление by Vetal
pb.wtf



Скачать Возмутитель спокойствия через торрент http://pic.kartinco.top/images/6/ordi9.jpg Скачать фильм Возмутитель спокойствия через торрент бесплантно в хорошем качестве Описание:То ли демон из ночных кошмаров, то ли аллегория, то ли ожившее воплощение всех человеческих страхов - Боргман, словно злой дух ... 10 10 6
Info! Золотая раздача, скачанное не засчитывается.
Торрент: Зарегистрирован [2014-01-20 07:58] · скачан: 86 раз
Статус: T временная
Размер: 749 MB
Как cкачать? Как скачать Возмутитель спокойствия через торрент | qTorrent

28-11-2019 20:33  

Отключить всю рекламу на сайте

    Дорогой пользователь! Огромная просьба, поблагодарите релизера, оцените раздачу и оставьте свои комментарий, если Вы скачали Возмутитель спокойствия через торрент бесплатно! Внесите свою лепту в развитие PiratBit!
    Комментировать посты могут только пользователи прошедшие не сложную регистрацию
    Показать сообщения:    

    Возмутитель спокойствия через торрент
    Скачать бесплатно Возмутитель спокойствия
    Возмутитель спокойствия скачать торрент
    Возмутитель спокойствия смотреть онлайн
    Cкачать фильм Возмутитель спокойствия бесплатно
    Возмутитель спокойствия скачать торрент в хорошем качестве
    Возмутитель спокойствия смотреть онлайн бесплатно в хорошем качестве


    Вы не можете начинать темы
    Вы не можете отвечать на сообщения
    Вы не можете редактировать свои сообщения
    Вы не можете удалять свои сообщения
    Вы не можете голосовать в опросах
    Вы не можете прикреплять файлы к сообщениям
    Вы можете скачивать файлы