Присоединяйтесь к нам в Telegram!, здесь всегда актуальный адрес сайта, оперативная поддержка и многое другое!!

>

5.9

iTunes

7.4

iTunes

9.4

1 сезон

1

7.4

2 сезон

7.2

iTunes

7.3

1 сезон

13

6.1

iTunes

8.3

GOG

30

ULTIMATE

pack

9.9

Лицензия

ВАЖНО

ИГРА 18+

pack

7.3

RePack

MK11

7.7

RePack

jed

7.8

RePack

fifa19

8.5

RePack

RDR2

RePack

NEED FOR SPEED™ PAYBACK

5 сезон

9 сезон

Бесстыжие 9 сезон

Все сериалы

все сериалы на PB.wtf

RePack

FAR CRY 5

Anonymous, добрый вечер, мы катастрофически не успеваем собрать деньги на оплату серверов, помогите нам пожалуйста 5,10,15р., для нас важна любая помощь . В качестве благодарности мы отключим Вам всю рекламу на сайте (укажите свой ник в строку Ваше имя)!

×
  
Magnet ссылка

Винтаж - Москва (feat. Dj Smash) [2011 г., Рор/Dance, HDTVRip 1080p] pb.wtf

Винтаж - Москва через торрент pb.wtf

Размер: 558 MB | Добавлен: 7 лет 10 мес. назад | Торрент скачан:49 раз
Смотреть онлайн Винтаж - Москва | Скачать    Ребята, помогите собрать деньги на оплату серверов!!!

20-01-2014 10:04 Винтаж - Москва Скачать торрент  

Винтаж - Москва (feat. Dj Smash)
Год выпуска: 2011
Страна: Россия
Жанр: Рор, Dance,
Продолжительность: 00:03:57

Качество: HDTVRip 1080p
Формат: MP4
Видео кодек: H.264
Аудио кодек: AAC
Видео: AVC, 1920*1080, 19,4 Mbps, 25.000 fps
Аудио: AAC, 320 Kbps, 48.0 KHz, 2 channels






General
Complete name : C:UsersEddyVideosТорентыВинтаж - Москва (feat. Dj Smash) (REMusic).mp4
Format : MPEG-4
Format profile : Base Media / Version 2
Codec ID : mp42
File size : 558 MiB
Duration : 3mn 57s
Overall bit rate mode : Variable
Overall bit rate : 19.7 Mbps
Encoded date : UTC 2013-10-22 17:18:15
Tagged date : UTC 2013-10-22 17:18:15
©TIM : 00:00:00:00
©TSC : 25
©TSZ : 1

Video
ID : 1
Format : AVC
Format/Info : Advanced Video Codec
Format profile : Main@L4.2
Format settings, CABAC : Yes
Format settings, ReFrames : 3 frames
Codec ID : avc1
Codec ID/Info : Advanced Video Coding
Duration : 3mn 57s
Bit rate : 19.4 Mbps
Width : 1 920 pixels
Height : 1 080 pixels
Display aspect ratio : 16:9
Frame rate mode : Constant
Frame rate : 25.000 fps
Standard : PAL
Color space : YUV
Chroma subsampling : 4:2:0
Bit depth : 8 bits
Scan type : Progressive
Bits/(Pixel*Frame) : 0.374
Stream size : 549 MiB (98%)
Language : English
Encoded date : UTC 2013-10-22 17:18:15
Tagged date : UTC 2013-10-22 17:18:15

Audio
ID : 2
Format : AAC
Format/Info : Advanced Audio Codec
Format profile : LC
Codec ID : 40
Duration : 3mn 57s
Source duration : 3mn 57s
Bit rate mode : Variable
Bit rate : 317 Kbps
Maximum bit rate : 410 Kbps
Channel(s) : 2 channels
Channel positions : Front: L R
Sampling rate : 48.0 KHz
Compression mode : Lossy
Stream size : 8.99 MiB (2%)
Source stream size : 8.99 MiB (2%)
Language : English
Encoded date : UTC 2013-10-22 17:18:15
Tagged date : UTC 2013-10-22 17:18:15

pb.wtf



Скачать Винтаж - Москва через торрент https://pic1.kartinco.top/images/61/6ebxq.jpg Скачать, смотреть онлайн Винтаж - Москва бесплантно в хорошем качестве Год выпуска: 2011Страна: РоссияЖанр: Рор, Dance,Продолжительность: ... 9.9 10 8
Info! Золотая раздача, скачанное не засчитывается.
Торрент: Зарегистрирован [2014-01-20 10:04] · скачан: 49 раз
Статус: √ проверено
Размер: 558 MB
Как cкачать? Как скачать Винтаж - Москва через торрент | UTorrent

28-11-2019 20:33  

Отключить всю рекламу на сайте

    Дорогой пользователь! Огромная просьба, поблагодарите релизера, оцените раздачу и оставьте свои комментарий, если Вы скачали Винтаж - Москва через торрент бесплатно!
    Комментировать посты могут только пользователи прошедшие не сложную регистрацию
    Показать сообщения:    

    Винтаж - Москва через торрент
    Скачать бесплатно Винтаж - Москва
    Винтаж - Москва скачать торрент
    Винтаж - Москва смотреть онлайн
    Cкачать фильм Винтаж - Москва бесплатно
    Винтаж - Москва скачать торрент в хорошем качестве
    Винтаж - Москва смотреть онлайн бесплатно в хорошем качестве


    Вы не можете начинать темы
    Вы не можете отвечать на сообщения
    Вы не можете редактировать свои сообщения
    Вы не можете удалять свои сообщения
    Вы не можете голосовать в опросах
    Вы не можете прикреплять файлы к сообщениям
    Вы можете скачивать файлы