Ссылка на приватное зеркало нашего сайта всего за 1$. Внимание количество ограничено!!!

2 сезон

iTunes

1 сезон

1

iTunes

iTunes

iTunes

1 сезон

RePack

30

ИГРА 18+

pack

ВАЖНО

!!Акция!!

Alien_RageХит недели

RePack

MK11
pack

Забери бонус

RePack

jed

!!Акция!!

Alien_Rage

RePack

fifa19

RePack

Assassins Creed: Odyssey

RePack

NEED FOR SPEED™ PAYBACK

4 сезон

9 сезон

Бесстыжие 9 сезон

Все сериалы

все сериалы на PB.wtf

RePack

FAR CRY 5
  

5 чувств страха / Chilling Visions: 5 Senses of Fear (Эрик Инглэнд / Eric England, Ник Эверхарт / Nick Everhart, Эмили Хагинс / Emily Hagins) [2013, США, ужасы, HDRip,Любительский (одноголосый)[Вадим Белов] pb.wtf

5 чувств страха через торрент pb.wtf

Размер: 1.37 GB | Добавлен: 6 лет 9 мес. назад | Торрент скачан:248 раз
Скачать  

20-01-2014 11:09 5 чувств страха Скачать торрент  


5 чувств страха / Chilling Visions: 5 Senses of Fear

«Five short films. Five ground-breaking visions. Five reasons to be scared senseless»

Год выпуска:2013
Страна:США
Жанр:ужасы

Продолжительность: 01:27:31
Перевод:Любительский (одноголосый)[Вадим Белов]

Субтитры: Нет
Режиссер:Эрик Инглэнд / Eric England, Ник Эверхарт / Nick Everhart, Эмили Хагинс / Emily Hagins
В ролях:Николас Туччи (Office Drone), Симба Смит (Lacey Sharp), Калеб Баруик (Henry), Jeff Valenti (Office Employee), Морган Уэст (Spencer Masters), Дэней Нейсон (Sarah), Гвен Косак (Office co-worker), Джон Дулан (Wounded Man /Opening credits victim), Шон Лесер (Office Clerk), Эрик Наенхюис (Marlboro Man), Эйс Марреро (Police Officer), Тиа Тринидад (Chelsea)
  • Описание:
    Пять коротких историй. Пять чувств. Всех их объединяет страх...

    Качество:HDRip
    Формат:AVI
    Видео кодек: XviD
    Аудио кодек:AC3
    Видео: XviD, 720x400 (16:9), 1842 kbps, 23,976 fps, 0,267 bpp
    Аудио №1: AC3 / 2.0 / 44 kHz / 192 kbps / 16 bit/Russian
    Аудио №2: AC3 / 2.0 / 48 kHz / 192 kbps / 16 bit/English

Код:

Общее
Полное имя                               : D:Торенты5.chuvstv.straha.2013.L1.HDRip.1400Mb.avi
Формат                                   : AVI
Формат/Информация                        : Audio Video Interleave
Размер файла                             : 1,37 Гбайт
Продолжительность                        : 1 ч. 27 м.
Общий поток                              : 2241 Кбит/сек
Программа кодирования                    : VirtualDubMod 1.5.10.3 | www.virtualdub-fr.org || (build 2550/release)
Библиотека кодирования                   : VirtualDubMod build 2550/release

Видео
Идентификатор                            : 0
Формат                                   : MPEG-4 Visual
Профиль формата                          : Advanced Simple@L5
Параметр BVOP формата                    : 1
Параметр QPel формата                    : Нет
Параметр GMC формата                     : Без точки перехода
Параметр матрицы формата                 : Выборочная
Идентификатор кодека                     : XVID
Идентификатор кодека/Подсказка           : XviD
Продолжительность                        : 1 ч. 27 м.
Битрейт                                  : 1843 Кбит/сек
Ширина                                   : 720 пикселей
Высота                                   : 400 пикселей
Соотношение сторон                       : 16:9
Частота кадров                           : 23,976 кадра/сек
Цветовое пространство                    : YUV
Субдискретизация насыщенности            : 4:2:0
Битовая глубина                          : 8 бит
Тип развёртки                            : Прогрессивная
Метод сжатия                             : С потерями
Бит/(Пиксели*Кадры)                      : 0.267
Размер потока                            : 1,13 Гбайт (82%)
Библиотека кодирования                   : XviD 1.2.1 (UTC 2008-12-04)

Аудио #1
Идентификатор                            : 1
Формат                                   : AC-3
Формат/Информация                        : Audio Coding 3
Расширение режима                        : CM (complete main)
Параметр Endianness формата              : Big
Идентификатор кодека                     : 2000
Продолжительность                        : 1 ч. 27 м.
Вид битрейта                             : Постоянный
Битрейт                                  : 192 Кбит/сек
Каналы                                   : 2 канала
Расположение каналов                     : Front: L R
Частота                                  : 44,1 КГц
Битовая глубина                          : 16 бит
Метод сжатия                             : С потерями
Размер потока                            : 120 Мбайт (9%)
Выравнивание                             : Разделение по промежуткам
Продолжительность промежутка             : 42  мс. (1,00 видеокадр)
Время предзагрузки промежутка            : 500  мс.

Аудио #2
Идентификатор                            : 2
Формат                                   : AC-3
Формат/Информация                        : Audio Coding 3
Расширение режима                        : CM (complete main)
Параметр Endianness формата              : Big
Идентификатор кодека                     : 2000
Продолжительность                        : 1 ч. 27 м.
Вид битрейта                             : Постоянный
Битрейт                                  : 192 Кбит/сек
Каналы                                   : 2 канала
Расположение каналов                     : Front: L R
Частота                                  : 48,0 КГц
Битовая глубина                          : 16 бит
Метод сжатия                             : С потерями
Размер потока                            : 120 Мбайт (9%)
Выравнивание                             : Разделение по промежуткам
Продолжительность промежутка             : 42  мс. (1,00 видеокадр)
Время предзагрузки промежутка            : 500  мс.


Скриншоты:

Трейлеры к фильмам [2014]

© Оформление by Vetal
pb.wtf



Скачать 5 чувств страха через торрент http://pic.kartinco.top/images/6/ordi9.jpg Скачать фильм 5 чувств страха через торрент бесплантно в хорошем качестве Описание:Пять коротких историй. Пять чувств. Всех их объединяет ... 10 10 7
Info! Золотая раздача, скачанное не засчитывается.
Торрент: Зарегистрирован [2014-01-20 11:09] · скачан: 248 раз
Статус: √ проверено
Размер: 1.37 GB
Как cкачать? Как скачать 5 чувств страха через торрент | qTorrent

% Раздел Тема Автор DL S | L
Фильмы [HD 720p, 1080p] (Звук Cam, VO, DVO) [ 6.67 GB ] 5 чувств страха / Chilling Visions: 5 Senses of Fear [2013 BDRip 1080pЛюбительский [Вадим Белов] Ворон Скачать
1 | 0

28-11-2019 20:33  

Отключить всю рекламу на сайте

20-01-2014 18:18 5 чувств страха Скачать торрент  

такое описание надо точно глянуть и авка убивает)))pb.wtf



    Дорогой пользователь! Огромная просьба, поблагодарите релизера, оцените раздачу и оставьте свои комментарий, если Вы скачали 5 чувств страха через торрент бесплатно! Внесите свою лепту в развитие PiratBit!
    Комментировать посты могут только пользователи прошедшие не сложную регистрацию
    Показать сообщения:    

    5 чувств страха через торрент
    Скачать бесплатно 5 чувств страха
    5 чувств страха скачать торрент
    5 чувств страха смотреть онлайн
    Cкачать фильм 5 чувств страха бесплатно
    5 чувств страха скачать торрент в хорошем качестве
    5 чувств страха смотреть онлайн бесплатно в хорошем качестве


    Вы не можете начинать темы
    Вы не можете отвечать на сообщения
    Вы не можете редактировать свои сообщения
    Вы не можете удалять свои сообщения
    Вы не можете голосовать в опросах
    Вы не можете прикреплять файлы к сообщениям
    Вы можете скачивать файлы