Ссылка на приватное зеркало всего за 1$. Внимание количество ограничено!!!

iTunes

iTunes

iTunes

1

iTunes

iTunes

iTunes

iTunes

iTunes

30
pack

$ от Little Big

ВАЖНО

!!Акция!!

Alien_RageХит недели

RePack

Resident Evil 21

ИГРА 18+

pack

RePack

jed

!!Акция!!

Alien_Rage

RePack

fifa19

RePack

Assassins Creed: Odyssey

RePack

NEED FOR SPEED™ PAYBACK

4 сезон

9 сезон

Бесстыжие 9 сезон

Все сериалы

все сериалы на PB.wtf

RePack

FAR CRY 5
  

Начни сначала (Александр Стефанович) [1986, трагикомедия, музыкальный, DVDRip] pb.wtf

Начни сначала через торрент pb.wtf

Размер: 1.37 GB | Добавлен: 6 лет 5 мес. назад | Торрент скачан:16 раз
Скачать  

20-01-2014 14:54 Начни сначала Скачать торрент  

Начни сначала Год выпуска: 1985
Страна: СССР
Жанр: мюзикл
Продолжительность: 01:07:25
Перевод: Не требуется
Субтитры: Нет
Режиссер: Александр Стефанович
Сценарий: Александр Бородянский, Александр Стефанович
В ролях: Андрей Макаревич, Марьяна Полтева, Игорь Скляр, Александра Яковлева (Лера), Ролан Быков, Светлана Немоляева, Алла Мочернюк, Мичислав Юзовский, Иван Агафонов, Вячеслав Спесивцев, Алла Майкова, Эдуард Кошман
Описание:
В этом фильме Андрей Макаревич, молодой, но уже популярный композитор и певец, выступил в роли молодого дарования, барда Николая Ковалева. Он признан и любим молодежью, но музыкальные чиновники остаются глухи к творчеству поэта. Новая полоса в его жизни начинается с неожиданной встречи...
Рейтинг
kinopoisk.ru: 6.849 (204)
imdb.com: 6.20 (25)
Ограничения на просмотр: для любой зрительской аудитории
Качество: DVDRip
Формат: AVI
Видео кодек: DivX 5
Аудио кодек: AC3
Видео: DivX 5, 720x304 (2.35:1), 2701 kbps, 25 fps, 0,494 bpp
Аудио: AC3 / 2.0 , 192 kbps , 16 bit , 48 kHz

Общее
Полное имя : D:TORRENTNachni snachala.avi
Формат : AVI
Формат/Информация : Audio Video Interleave
Размер файла : 1,37 Гбайт
Продолжительность : 1 ч. 7 м.
Общий поток : 2901 Кбит/сек
Программа кодирования : VirtualDubMod 1.5.4.1 (build 2178/release)
Библиотека кодирования : VirtualDubMod build 2178/release

Видео
Идентификатор : 0
Формат : MPEG-4 Visual
Параметр BVOP формата : 1
Параметр QPel формата : Нет
Параметр GMC формата : Без точки перехода
Параметр матрицы формата : Default (H.263)
Режим смешивания : Сжатый битовый поток
Идентификатор кодека : DX50
Идентификатор кодека/Подсказка : DivX 5
Продолжительность : 1 ч. 7 м.
Битрейт : 2702 Кбит/сек
Ширина : 720 пикселей
Высота : 304 пикселя
Соотношение сторон : 2,35:1
Частота кадров : 25,000 кадров/сек
Цветовое пространство : YUV
Субдискретизация насыщенности : 4:2:0
Битовая глубина : 8 бит
Тип развёртки : Прогрессивная
Метод сжатия : С потерями
Бит/(Пиксели*Кадры) : 0.494
Размер потока : 1,27 Гбайт (93%)
Библиотека кодирования : DivX 6.6.0 (UTC 2007-05-04)

Аудио
Идентификатор : 1
Формат : AC-3
Формат/Информация : Audio Coding 3
Расширение режима : CM (complete main)
Параметр Endianness формата : Big
Идентификатор кодека : 2000
Продолжительность : 1 ч. 7 м.
Вид битрейта : Постоянный
Битрейт : 192 Кбит/сек
Каналы : 2 канала
Расположение каналов : Front: L R
Частота : 48,0 КГц
Битовая глубина : 16 бит
Метод сжатия : С потерями
Размер потока : 92,6 Мбайт (7%)
Выравнивание : Разделение по промежуткам
Продолжительность промежутка : 96 мс. (2,40 видеокадра)
Время предзагрузки промежутка : 96 мс.
скриншот   скриншот   скриншот   скриншот   скриншот  скриншот   скриншот   скриншот  
pb.wtf



Скачать Начни сначала через торрент http://pic.kartinco.top/images/6/c5wxk.jpg Скачать фильм Начни сначала через торрент бесплантно в хорошем качестве Описание: В этом фильме Андрей Макаревич, молодой, но уже популярный композитор и певец, выступил в роли молодого дарования, барда Николая ... 6.3 10 3
Info! Золотая раздача, скачанное не засчитывается.
Торрент: Зарегистрирован [2014-01-20 14:54] · скачан: 16 раз
Статус: √ проверено
Размер: 1.37 GB
Как cкачать? Как скачать Начни сначала через торрент | qTorrent

% Раздел Тема Автор DL S | L
Наши сериалы [ 2.64 GB ] Начнём всё сначала / Серии: 1-2 из 2 [2019 Мело WEBRip-AVC] bober100 Скачать
1 | 0
Наши сериалы [ 2.65 GB ] Начнём всё сначала / Серии: 1-2 из 2 [2019 Мело WEB-DLRip] bober100 Скачать
1 | 0
Наши сериалы [ 2.62 GB ] Начнём всё сначала / Серии: 1-2 из 2 [2019 Мело HDTVRip] bober100 Скачать
1 | 0
Наши сериалы [ 2.78 GB ] Начнём всё сначала / Серии: 1-2 из 2 [2019 Мело SATRip] bober100 Скачать
1 | 0
Концерты [ 3.04 GB ] Денис Клявер - Начнём сначала [2019 Pop WEB-DL 1080p] Скорпион1976 Скачать
2 | 0
Фильмы 2018 [DVDrip, WEB-DLRip, HDrip] (DUB, MVO) [ 710 MB ] Начни сначала / Second Act [2018 HDRip ] coc900 Скачать
1 | 0
Фильмы 2018 [DVDrip, WEB-DLRip, HDrip] (DUB, MVO) [ 1.42 GB ] Начни сначала / Second Act [2018 BDRip] - Twi7ter Скачать
6 | 0

28-11-2019 20:33  

Отключить всю рекламу на сайте

    Дорогой пользователь! Огромная просьба, поблагодарите релизера, оцените раздачу и оставьте свои комментарий, если Вы скачали Начни сначала через торрент бесплатно! Внесите свою лепту в развитие PiratBit!
    Комментировать посты могут только пользователи прошедшие не сложную регистрацию
    Показать сообщения:    

    Начни сначала через торрент
    Скачать бесплатно Начни сначала
    Начни сначала скачать торрент
    Начни сначала смотреть онлайн
    Cкачать фильм Начни сначала бесплатно
    Начни сначала скачать торрент в хорошем качестве
    Начни сначала смотреть онлайн бесплатно в хорошем качестве


    Вы не можете начинать темы
    Вы не можете отвечать на сообщения
    Вы не можете редактировать свои сообщения
    Вы не можете удалять свои сообщения
    Вы не можете голосовать в опросах
    Вы не можете прикреплять файлы к сообщениям
    Вы можете скачивать файлы