2 сезон

iTunes

MVO

1

2 сезон

iTunes

iTunes

1 сезон

RePack

30

Новинка

ВАЖНО

ИГРА 18+

pack

RePack

MK11
pack

Легкие деньги

RePack

jed

RePack

fifa19

RePack

RDR2

RePack

NEED FOR SPEED™ PAYBACK

4 сезон

9 сезон

Бесстыжие 9 сезон

Все сериалы

все сериалы на PB.wtf

RePack

FAR CRY 5

Anonymous, доброй ночи, мы не успеваем собрать деньги на оплату серверов за декабрь и январь, помогите нам пожалуйста в это трудное время. В качестве благодарности мы отключим Вам всю рекламу на сайте (укажите свой ник в строку Ваше имя)!

×
  
Magnet ссылка

Как я теперь люблю / How I Live Now (Кевин МакДональд / Kevin Macdonald) [ 2013 , Великобритания , фэнтези, драма, приключения , HDRip ] AVO [А. Матвеев aka Doktor_Joker] pb.wtf

Как я теперь люблю через торрент pb.wtf

Размер: 1.46 GB | Добавлен: 6 лет 11 мес. назад | Торрент скачан:156 раз
Скачать  

06-01-2014 13:21 Как я теперь люблю Скачать торрент  

Как я теперь люблю / How I Live Now

«Даже третья мировая не одолеет первую любовь»

  • Год выпуска:2013
  • Страна:Великобритания
  • Жанр:фэнтези, драма, приключения

  • Продолжительность: 01:41:12
  • Перевод:Авторское (одноголосое) [А. Матвеев aka Doktor_Joker]

  • Субтитры: Нет
    • Режиссер:Кевин МакДональд / Kevin Macdonald
    • Сценарий: Джереми Брок / Jeremy Brock, Тони Гризони / Tony Grisoni, Пенелопа Скиннер / Penelope Skinner, Мэг Рософф / Meg Rosoff
    • Продюсер: Джон Батсек / John Battsek, Аласдер Флинд / Alasdair Flind, Эндрю Руэманн / Andrew Ruhemann, Чарльз Стил / Charles Steel, Найджел Уильямс / Nigel Williams

  • В ролях:Сирша Ронан (Daisy), Том Холлэнд (Isaac), Джордж МакКэй (Eddie), Харли Бёрд (Piper), Дэнни МакЭвой (Joe), Анна Чэнселлор (Aunt Penn), Джонатан Рагман (News Reporter), Кори Джонсон (Consular Official), Даррен Морфитт (Sergeant), Стелла Гонет (Mrs. McEvoy), Дес МакАлир (Major McEvoy), Софи Стэнтон (Woman in Truck)
    • Описание:
      Действие разворачивается в недалеком будущем. Пятнадцатилетняя Дэйзи приезжает из Нью-Йорка в Лондон к тете с дядей. И влюбляется без памяти в своего кузена Эдмонда. Но на пути первой любви встает внезапно разворачивающаяся Третья Мировая Война.


    Мировая премьера:10 сентября 2013

    • Качество:HDRip
    • Формат:AVI
    • Видео кодек: XviD
    • Аудио кодек:AC3
    • Видео: XviD, 720x384 (1.875), 1667 kbps, 23,976 fps, 0,252 bpp
    • Аудио: AC3 / 5.1 / 48 kHz / 384 kbps / 16 bit


    Код:

    General
    Complete name                            : C:UsersVoron4ikDownloadsHow.I.Live.Now.2013.A1.WEBDLRip.1400MB.avi
    Format                                   : AVI
    Format/Info                              : Audio Video Interleave
    File size                                : 1.46 GiB
    Duration                                 : 1h 41mn
    Overall bit rate                         : 2 061 Kbps
    Writing application                      : VirtualDubMod 1.5.10.2 (build 2540/release)
    Writing library                          : VirtualDubMod build 2540/release

    Video
    ID                                       : 0
    Format                                   : MPEG-4 Visual
    Format profile                           : Advanced Simple@L5
    Format settings, BVOP                    : 2
    Format settings, QPel                    : No
    Format settings, GMC                     : No warppoints
    Format settings, Matrix                  : Custom
    Codec ID                                 : XVID
    Codec ID/Hint                            : XviD
    Duration                                 : 1h 41mn
    Bit rate                                 : 1 668 Kbps
    Width                                    : 720 pixels
    Height                                   : 384 pixels
    Display aspect ratio                     : 1.875
    Frame rate                               : 23.976 fps
    Color space                              : YUV
    Chroma subsampling                       : 4:2:0
    Bit depth                                : 8 bits
    Scan type                                : Progressive
    Compression mode                         : Lossy
    Bits/(Pixel*Frame)                       : 0.252
    Stream size                              : 1.18 GiB (81%)
    Writing library                          : XviD 1.2.1 (UTC 2008-12-04)

    Audio
    ID                                       : 1
    Format                                   : AC-3
    Format/Info                              : Audio Coding 3
    Mode extension                           : CM (complete main)
    Codec ID                                 : 2000
    Duration                                 : 1h 41mn
    Bit rate mode                            : Constant
    Bit rate                                 : 384 Kbps
    Channel(s)                               : 6 channels
    Channel positions                        : Front: L C R, Side: L R, LFE
    Sampling rate                            : 48.0 KHz
    Bit depth                                : 16 bits
    Compression mode                         : Lossy
    Stream size                              : 278 MiB (19%)
    Alignment                                : Split accross interleaves
    Interleave, duration                     : 42 ms (1.00 video frame)
    Interleave, preload duration             : 500 ms


    Скриншоты:

    Трейлеры к фильмам [2014]

    © Оформление by Vetalpb.wtf



  • Скачать Как я теперь люблю через торрент http://i3.imageban.ru/out/2014/01/06/c937fb93498aa4fb9757a8140b358fdf.jpg Скачать фильм Как я теперь люблю через торрент бесплантно в хорошем качестве Описание:Действие разворачивается в недалеком будущем. Пятнадцатилетняя Дэйзи приезжает из Нью-Йорка в Лондон к тете с дядей. И влюбляется ... 9.4 10 9
    Info! Золотая раздача, скачанное не засчитывается.
    Торрент: Зарегистрирован [2014-01-20 18:24] · скачан: 156 раз
    Статус: √ проверено
    Размер: 1.46 GB
    Как cкачать? Как скачать Как я теперь люблю через торрент | UTorrent

    % Раздел Тема Автор DL S | L
    Фильмы 2013 [DVDrip, WEB-DLRip, HDrip] [ 1.46 GB ] Как я теперь люблю / Как я теперь живу / How I Live Now [2013 BDRip-AVC] MVO [] potroks Скачать
    1 | 0
    Фильмы 2013 [DVDrip, WEB-DLRip, HDrip] [ 1.36 GB ] Как я теперь люблю / How I Live Now [ 2013 HDRip ] [] Ворон Скачать
    1 | 0
    Фильмы [HD 720p, 1080p] (Хороший звук DUB, MVO) [ 8.47 GB ] Как я теперь люблю / How I Live Now [ 2013 BDRip 1080p ] [] Ворон Скачать
    1 | 0
    Фильмы [HD 720p, 1080p] (Хороший звук DUB, MVO) [ 7.92 GB ] Как я теперь люблю / How I Live Now [ 2013 BDRip 1080p ] AVO [А. Матвеев aka Doktor_Joker]+ENG+Sub Ворон Скачать
    1 | 0
    Фильмы с авторской озвучкой [ 1.46 GB ] Как я теперь люблю / Как я теперь живу / How I Live Now [2013 BDRip-AVC] AVO + Sub potroks Скачать
    1 | 0

    28-11-2019 20:33  

    Отключить всю рекламу на сайте

    06-01-2014 13:42 Как я теперь люблю Скачать торрент  

    Ээээммм.... Так фильм называется "Как я теперь ЛЮБЛЮ" или всё-таки "Как я теперь ЖИВУ"?)))pb.wtf



    06-01-2014 13:45 Как я теперь люблю Скачать торрент  

    06-01-2014 14:02 Как я теперь люблю Скачать торрент  

    Тогда постер поменяйте)pb.wtf



    06-01-2014 14:16 Как я теперь люблю Скачать торрент  

    На постере девонка и на скринах - это она?
    А то на постере симпатичная, на скринах что то похожее на трансвистита... именно что то...pb.wtf



    06-01-2014 16:00 Как я теперь люблю Скачать торрент  

    + из за постера повёлсяpb.wtf



    09-01-2014 09:56 Как я теперь люблю Скачать торрент  

    уснул я на нем-так то и актрисса модная-гостья и так далее-не тронуло четоpb.wtf



    09-01-2014 15:29 Как я теперь люблю Скачать торрент  

    Live=Love? Господи покарай этих прокатчиков!
    p.s. Я смотрю кто-то усердно пиарит эту актрису...pb.wtf



      Дорогой пользователь! Огромная просьба, поблагодарите релизера, оцените раздачу и оставьте свои комментарий, если Вы скачали Как я теперь люблю через торрент бесплатно! Внесите свою лепту в развитие PiratBit!
      Комментировать посты могут только пользователи прошедшие не сложную регистрацию
      Показать сообщения:    

      Как я теперь люблю через торрент
      Скачать бесплатно Как я теперь люблю
      Как я теперь люблю скачать торрент
      Как я теперь люблю смотреть онлайн
      Cкачать фильм Как я теперь люблю бесплатно
      Как я теперь люблю скачать торрент в хорошем качестве
      Как я теперь люблю смотреть онлайн бесплатно в хорошем качестве


      Вы не можете начинать темы
      Вы не можете отвечать на сообщения
      Вы не можете редактировать свои сообщения
      Вы не можете удалять свои сообщения
      Вы не можете голосовать в опросах
      Вы не можете прикреплять файлы к сообщениям
      Вы можете скачивать файлы