Ссылка на приватное зеркало нашего сайта всего за 1$. Внимание количество ограничено!!!

2 сезон

iTunes

1 сезон

1

2 сезон

2 сезон

iTunes

1 сезон

RePack

30

Новинка

ВАЖНО

ИГРА 18+

pack

RePack

MK11
pack

Забери бонус

RePack

jed

!!Акция!!

Alien_Rage

RePack

fifa19

RePack

Assassins Creed: Odyssey

RePack

NEED FOR SPEED™ PAYBACK

4 сезон

9 сезон

Бесстыжие 9 сезон

Все сериалы

все сериалы на PB.wtf

RePack

FAR CRY 5
  

Бесстыдники (UK) 1 сезон 1-7(7) / Shameless (UK) 1 season 1-7(7) (Марк Майлонд) [2004 г., драма, комедия, DVDRip] pb.wtf

Бесстыдники через торрент pb.wtf

Размер: 2.66 GB | Добавлен: 8 лет 9 мес. назад | Торрент скачан:23 раза
Скачать  

29-01-2012 10:29 Бесстыдники Скачать торрент  

Бесстыдники 1 сезон 1-7(7) / Shameless (UK) 1 season 1-7(7)
Год выпуска: 2004
Страна: Великобритания
Жанр: драма, комедия
Продолжительность: 7 серий x 46 минут
Перевод: Любительский (двухголосый) [Dila, Zamez]
Режиссер: Марк Майлонд
Продюссер: Пол Эбботт
Сценарий: Пол Эбботт, Джек Лотиан, Джимми Даудэлл
В ролях: Дэвид Трелфал, Герард Кернс, Ребекка Райан, Эллиотт Титтенсор, Джоди Лэтэм, Ребекка Эткинсон, Келли Холлис, Мэгги О`Нейлл, Марджори Йэтс, Линдси Даусон и Джеймс Макэвой

Описание: Британский комедийно-драматический сериал, действие которого происходит в вымышленном районе Чатсворт Эстейт города Манчестер, Англия и повествует о необычной, мягко говоря, жизни семьи Галлагеров. Это жизнь детей из этой многодетной семьи, оставленной матерью на их отца, алкоголика и тунеядца.
Похожие раздачи: Shameless
Качество: DVDRip
Формат: AVI
Видео кодек: XviD
Аудио кодек: MPEG Audio
Видео: 640x352 (1.82:1), 25 fps, XviD Final 1.0.3 (build 37) ~861 kbps avg, 0.15 bit/pixel
Аудио#1: 48 kHz, MPEG Layer 3, 2 ch, ~128.00 kbps avg
Аудио#2: 48 kHz, MPEG Layer 3, 2 ch, ~128.00 kbps avg
Общее
Полное имя : \Shameless_UK\1 season\Shameless.s01e06.DVDRip.Rus.Eng.1001cinema.avi
Формат : AVI
Формат/Информация : Audio Video Interleave
Размер файла : 392 Мбайт
Продолжительность : 48 м.
Общий поток : 1132 Кбит/сек
Программа кодирования : VirtualDubMod 1.5.10.2 (build 2540/release)
Библиотека кодирования : VirtualDubMod build 2540/release

Видео
Идентификатор : 0
Формат : MPEG-4 Visual
Профиль формата : Advanced Simple@L5
Параметр BVOP формата : 2
Параметр QPel формата : Нет
Параметр GMC формата : Без точки перехода
Параметр матрицы формата : Default (H.263)
Режим смешивания : Сжатый битовый поток
Идентификатор кодека : XVID
Идентификатор кодека/Подсказка : XviD
Продолжительность : 48 м.
Битрейт : 862 Кбит/сек
Ширина : 640 пикселей
Высота : 352 пикселя
Соотношение сторон : 16:9
Частота кадров : 25,000 кадров/сек
Цветовое пространство : YUV
Субдискретизация насыщенности : 4:2:0
Битовая глубина : 8 бит
Тип развёртки : Прогрессивная
Метод сжатия : С потерями
Бит/(Пиксели*Кадры) : 0.153
Размер потока : 298 Мбайт (76%)
Библиотека кодирования : XviD 1.0.3 (UTC 2004-12-20)

Аудио #1
Идентификатор : 1
Формат : MPEG Audio
Версия формата : Version 1
Профиль формата : Layer 3
Режим : Joint stereo
Расширение режима : MS Stereo
Идентификатор кодека : 55
Идентификатор кодека/Подсказка : MP3
Продолжительность : 48 м.
Вид битрейта : Постоянный
Битрейт : 128 Кбит/сек
Каналы : 2 канала
Частота : 48,0 КГц
Метод сжатия : С потерями
Размер потока : 44,3 Мбайт (11%)
Выравнивание : Соединение по промежуткам
Продолжительность промежутка : 40 мс. (1,00 видеокадр)
Время предзагрузки промежутка : 504 мс.

Аудио #2
Идентификатор : 2
Формат : MPEG Audio
Версия формата : Version 1
Профиль формата : Layer 3
Режим : Joint stereo
Идентификатор кодека : 55
Идентификатор кодека/Подсказка : MP3
Продолжительность : 48 м.
Вид битрейта : Постоянный
Битрейт : 128 Кбит/сек
Каналы : 2 канала
Частота : 48,0 КГц
Метод сжатия : С потерями
Размер потока : 44,3 Мбайт (11%)
Выравнивание : Соединение по промежуткам
Продолжительность промежутка : 40 мс. (1,00 видеокадр)
Время предзагрузки промежутка : 504 мс.
pb.wtf



Скачать Бесстыдники через торрент http://pic.kartinco.top/images/2011/eikfd152ah.jpg Скачать фильм Бесстыдники через торрент бесплантно в хорошем качестве Описание: Британский комедийно-драматический сериал, действие которого происходит в вымышленном районе Чатсворт Эстейт города Манчестер, ... 10 10 2
Info! Золотая раздача, скачанное не засчитывается.
Торрент: Зарегистрирован [2012-01-29 10:29] · скачан: 23 раз
Статус: √ проверено
Размер: 2.66 GB
Как cкачать? Как скачать Бесстыдники через торрент | qTorrent

% Раздел Тема Автор DL S | L
Зарубежные сериалы [ 113.73 GB ] Бесстыжие / Бесстыдники / Shameless / Сезон: 1-10 / Серия: 1-122 из 122 [2011-2019 HDRip HDTVRip WEB-DLRip] MVO [AlexFilm] bober100 Скачать
1 | 1
Зарубежные сериалы [ 16.8 GB ] Бесстыдники / Бесстыжие / Shameless / Cезон 1 [2011 HDTV 720p] fallen_poet Скачать
1 | 0
Зарубежные сериалы [ 9.45 GB ] Бесстыжие / Бесстыдники / Shameless / Сезон: 10 / Серии: 1-12 из 12 [2019 WEB-DLRip] MVO [AlexFilm] bober100 Скачать
4 | 1
Зарубежные сериалы [ 28.24 GB ] Бесстыжие / Бесстыдники / Shameless / Сезон: 10 / Серии: 1-12 из 12 [2019 WEB-DL 720p] MVO [AlexFilm] bober100 Скачать
1 | 0
Зарубежные сериалы [ 50 GB ] Бесстыжие / Бесстыдники / Shameless / Сезон: 10 / Серия: 1-12 из 12 [2019 WEB-DL 1080p] MVO [AlexFilm] bober100 Скачать
1 | 0
Наши сериалы [ 61.75 GB ] Бесстыдники / Сезон: 1 / Серии: 1-24 из 24 [2017 HDTV 1080i] bober100 Скачать
1 | 0
Зарубежные сериалы [ 54.15 GB ] Бесстыжие / Бесстыдники / Shameless / Сезон: 9 / Серии: 1-14 из 14 [2018 WEB-DL 1080p] MVO [AlexFilm] bober100 Скачать
1 | 0


Последний раз редактировалось: 0xiDESK (2012-01-29 10:33), всего редактировалось 1 раз

28-11-2019 20:33  

Отключить всю рекламу на сайте

29-01-2012 10:32 Бесстыдники Скачать торрент  

для тех кто хочет заценить UK версию сериала =)
по мне дак как то вообще не очень, по сравнению с американским ремейком, в основном из-за актеров...pb.wtf



    Дорогой пользователь! Огромная просьба, поблагодарите релизера, оцените раздачу и оставьте свои комментарий, если Вы скачали Бесстыдники через торрент бесплатно! Внесите свою лепту в развитие PiratBit!
    Комментировать посты могут только пользователи прошедшие не сложную регистрацию
    Показать сообщения:    

    Бесстыдники через торрент
    Скачать бесплатно Бесстыдники
    Бесстыдники скачать торрент
    Бесстыдники смотреть онлайн
    Cкачать фильм Бесстыдники бесплатно
    Бесстыдники скачать торрент в хорошем качестве
    Бесстыдники смотреть онлайн бесплатно в хорошем качестве


    Вы не можете начинать темы
    Вы не можете отвечать на сообщения
    Вы не можете редактировать свои сообщения
    Вы не можете удалять свои сообщения
    Вы не можете голосовать в опросах
    Вы не можете прикреплять файлы к сообщениям
    Вы можете скачивать файлы