Ссылка на приватное зеркало нашего сайта всего за 1$. Внимание количество ограничено!!!

2 сезон

iTunes

1 сезон

1

2 сезон

2 сезон

iTunes

1 сезон

RePack

30

Ultimate

ВАЖНО

ИГРА 18+

pack

RePack

MK11
pack

Забери бонус

RePack

jed

!!Акция!!

Alien_Rage

RePack

fifa19

RePack

Assassins Creed: Odyssey

RePack

NEED FOR SPEED™ PAYBACK

4 сезон

9 сезон

Бесстыжие 9 сезон

Все сериалы

все сериалы на PB.wtf

RePack

FAR CRY 5
  

Лиллехаммер / Lilyhammer / Сезон: 2 / Серии: 1-8 из 8 (Simen Alsvik) [2013, комедия, драма, криминальный, HDTVRip 720p] [AVO] (Ю. Сербин) pb.wtf

Лиллехаммер через торрент pb.wtf

Размер: 11.96 GB | Добавлен: 10 мес. назад | Торрент скачан:2 раза
Скачать  

06-11-2013 21:39 Лиллехаммер Скачать торрент  

Лиллехаммер - Второй сезон
Lilyhammer

Год выхода в эфир
: 2013
Страна: Норвегия
Жанр: комедия, драма, криминальный
Продолжительность: 8x~ 00:45:00
Перевод: Авторский (одноголосый, закадровый) |Ю. Сербин|
Субтитры: есть (Norwegian)
Режиссер: Симен Алсвик, Лиза Мари Гамлем
В ролях: Стив Ван Зандт, Мариан Саастад Оттесен, Тронд Фауса Аурвааг, Энн Кригсволл, Стейнар Саген, Микаэль Акснес-Персон, Свен Нордин, Фридтьов Сохейм, Кюрре Хеллум, Томми Карлсен
Описание: Тальяно сдал своего босса федералам, и теперь, в рамках программы по защите свидетелей, он переезжает в Лиллехаммер, небольшой норвежский городок, когда-то приютивший зимние олимпийские игры. Сам Фрэнк называет его Лилихэммером, отсюда и название сериала. Фрэнк мечтает о рае с «чистым воздухом, белым снегом и клевыми телками», вдали от соблазнов Нью-Йорка и от карателей мафии. Реальность, конечно же, оказывается не такой, как мечты.


Качество: HDTVRip 720p
Формат: MKV
Видео кодек: h.264
Аудио кодек: AC3
Видео: 1280x720 at 25.000 fps, x264, ~3700 kbps avg
Аудио #1: 48 kHz, AC3 Dolby Digital, 3/2 (L,C,R,l,r) + LFE ch, ~448 kbps avg (01-04 серии.С 5-й серии звук в 2.0)|Ю. Сербин|
Аудио #2: 48 kHz, AC3 Dolby Digital, 2ch, ~448 kbps avg |Original|

ВНИМАНИЕ! В сериале присутствует большое количество не нормативной лексики.


General
Complete name : E:INTERNETLilyhammer.S02.720p.HDTVRip.Rus.Nor.HDCLUBLilyhammer.S02E01.720p.HDTVRip.Rus.Nor.HDCLUB.mkv
Format : Matroska
File size : 1.49 GiB
Duration : 45mn 10s
Overall bit rate : 4 726 Kbps
Movie name : Lilyhammer 2x01 (2013) - Release for HDCLUB
Encoded date : UTC 2013-10-28 12:29:48
Writing application : mkvmerge v6.3.0 ('You can't stop me!') built on Jun 28 2013 20:09:41
Writing library : libebml v1.3.0 + libmatroska v1.4.0

Video
ID : 1
Format : AVC
Format/Info : Advanced Video Codec
Format profile : High@L4.1
Format settings, CABAC : Yes
Format settings, ReFrames : 9 frames
Muxing mode : Container profile=Unknown@4.1
Codec ID : V_MPEG4/ISO/AVC
Duration : 45mn 10s
Bit rate : 3 736 Kbps
Width : 1 280 pixels
Height : 720 pixels
Display aspect ratio : 16:9
Frame rate : 25.000 fps
Color space : YUV
Chroma subsampling : 4:2:0
Bit depth : 8 bits
Scan type : Progressive
Bits/(Pixel*Frame) : 0.162
Stream size : 1.18 GiB (79%)
Title : Lilyhammer 2x01 - Release for HDCLUB
Writing library : x264 core 138 r2358 9e941d1
Encoding settings : cabac=1 / ref=9 / deblock=1:-2:-2 / analyse=0x3:0x133 / me=umh / subme=10 / psy=1 / psy_rd=1.00:0.00 / mixed_ref=1 / me_range=24 / chroma_me=1 / trellis=2 / 8x8dct=1 / cqm=0 / deadzone=21,11 / fast_pskip=1 / chroma_qp_offset=-2 / threads=12 / lookahead_threads=2 / sliced_threads=0 / nr=0 / decimate=1 / interlaced=0 / bluray_compat=0 / constrained_intra=0 / bframes=8 / b_pyramid=2 / b_adapt=2 / b_bias=0 / direct=3 / weightb=1 / open_gop=0 / weightp=2 / keyint=250 / keyint_min=25 / scenecut=40 / intra_refresh=0 / rc_lookahead=60 / rc=crf / mbtree=1 / crf=17.0 / qcomp=0.60 / qpmin=0 / qpmax=69 / qpstep=4 / ip_ratio=1.40 / aq=1:1.00

Audio #1
ID : 2
Format : AC-3
Format/Info : Audio Coding 3
Mode extension : CM (complete main)
Codec ID : A_AC3
Duration : 45mn 10s
Bit rate mode : Constant
Bit rate : 448 Kbps
Channel(s) : 6 channels
Channel positions : Front: L C R, Side: L R, LFE
Sampling rate : 48.0 KHz
Bit depth : 16 bits
Stream size : 145 MiB (9%)
Title : Ю. Сербин
Language : Russian

Audio #2
ID : 3
Format : AC-3
Format/Info : Audio Coding 3
Mode extension : CM (complete main)
Codec ID : A_AC3
Duration : 45mn 10s
Bit rate mode : Constant
Bit rate : 448 Kbps
Channel(s) : 2 channels
Channel positions : Front: L R
Sampling rate : 48.0 KHz
Bit depth : 16 bits
Video delay : 32ms
Stream size : 145 MiB (9%)
Language : Norwegian

Text
ID : 4
Format : UTF-8
Codec ID : S_TEXT/UTF8
Codec ID/Info : UTF-8 Plain Text
Language : Norwegian
pb.wtf



Скачать Лиллехаммер через торрент http://i82.fastpic.ru/big/2016/1112/b3/49d8e891d73c6e3c804697b797b675b3.png Скачать фильм Лиллехаммер через торрент бесплантно в хорошем качестве Описание: Тальяно сдал своего босса федералам, и теперь, в рамках программы по защите свидетелей, он переезжает в Лиллехаммер, небольшой ... 9.7 10 42
Торрент: Зарегистрирован [2020-01-08 19:17] · скачан: 2 раз
Статус: √ проверено
Размер: 11.96 GB
Как cкачать? Как скачать Лиллехаммер через торрент | qTorrent



Последний раз редактировалось: killermax2013 (2020-01-08 19:15), всего редактировалось 15 раз(а)

28-11-2019 20:33  

Отключить всю рекламу на сайте

    Дорогой пользователь! Огромная просьба, поблагодарите релизера, оцените раздачу и оставьте свои комментарий, если Вы скачали Лиллехаммер через торрент бесплатно! Внесите свою лепту в развитие PiratBit!
    Комментировать посты могут только пользователи прошедшие не сложную регистрацию
    Показать сообщения:    

    Лиллехаммер через торрент
    Скачать бесплатно Лиллехаммер
    Лиллехаммер скачать торрент
    Лиллехаммер смотреть онлайн
    Cкачать фильм Лиллехаммер бесплатно
    Лиллехаммер скачать торрент в хорошем качестве
    Лиллехаммер смотреть онлайн бесплатно в хорошем качестве


    Вы не можете начинать темы
    Вы не можете отвечать на сообщения
    Вы не можете редактировать свои сообщения
    Вы не можете удалять свои сообщения
    Вы не можете голосовать в опросах
    Вы не можете прикреплять файлы к сообщениям
    Вы можете скачивать файлы