Ссылка на приватное зеркало нашего сайта всего за 1$. Внимание количество ограничено!!!

2 сезон

iTunes

1 сезон

1

2 сезон

2 сезон

iTunes

1 сезон

RePack

30

Ultimate

ВАЖНО

ИГРА 18+

pack

RePack

MK11
pack

Забери бонус

RePack

jed

!!Акция!!

Alien_Rage

RePack

fifa19

RePack

Assassins Creed: Odyssey

RePack

NEED FOR SPEED™ PAYBACK

4 сезон

9 сезон

Бесстыжие 9 сезон

Все сериалы

все сериалы на PB.wtf

RePack

FAR CRY 5
  

Обитель лжи / House of Lies / Сезон: 1 / Серии: 1-12 (Полный сезон) (Стивен Хопкинс) [2012, комедия, HDTVRip] (NewStudio) pb.wtf

Обитель лжи через торрент pb.wtf

Размер: 4.15 GB | Добавлен: 6 лет 10 мес. назад | Торрент скачан:223 раза
Скачать  

13-01-2012 15:15 Обитель лжи Скачать торрент  

Обитель лжи / House of Lies

Год выпуска: 2012
Страна: США
Жанр: комедия
Продолжительность: 00:32:00
Перевод: Профессиональный (двухголосый, закадровый) (NewStudio)
Субтитры: Отсутствуют
Режиссер: Стивен Хопкинс
В ролях: Дон Чидл, Кристен Белл, Джош Лоусон, Доун Оливьери, Бен Швартц, Глинн Турман и др.
Описание: Необычный и язвительный взгляд на очень успешного и беспощадного консультанта Марти (Чидл), который не брезгует никакими средствами, чтобы получить нужную для его клиентов информацию, а также о его команде, в том числе о выпускнице престижного университета, которая работает в фирме Марти (Белл).
Похожие раздачи: House of Lies
Качество: HDTVRip
Формат: AVI
Видео кодек: XviD
Аудио кодек: MP3
Видео: 720x400 (16:9), 23.976 fps, ~1350 kbps, ~0.200 bit/pixel
Аудио Rus: 48 kHz, 2 ch, ~128 kbps
Аудио Eng: 48 kHz, 2 ch, ~128 kbps
Релиз от: NewStudio
Озвучка: Ирина Воронова, Константин Погодаев
Перевод: Александр Митраков (Opel)
Подготовка видео: Cherry
Работа со звуком: Cherry

Внимание: Сериал содержит ненормативную лексику.
Общее
Полное имя : I:РаздачиРаздачиHouse.of.Lies.s01.HDTVRip.NewStudioHouse.of.Lies.s01e01.HDTVRip.NewStudio.TV.avi
Формат : AVI
Формат/Информация : Audio Video Interleave
Размер файла : 400 Мбайт
Продолжительность : 33 м.
Режим общего битрейта : Переменный
Общий поток : 1648 Кбит/сек
Программа кодирования : VirtualDubMod 1.5.10.2 (build 2540/release)
Библиотека кодирования : VirtualDubMod build 2540/release

Видео
Идентификатор : 0
Формат : MPEG-4 Visual
Профиль формата : Advanced Simple@L5
Параметр BVOP формата : 2
Параметр QPel формата : Нет
Параметр GMC формата : Без точки перехода
Параметр матрицы формата : Default (MPEG)
Идентификатор кодека : XVID
Идентификатор кодека/Подсказка : XviD
Продолжительность : 33 м.
Битрейт : 1377 Кбит/сек
Ширина : 720 пикселей
Высота : 400 пикселей
Соотношение сторон : 16:9
Частота кадров : 23,976 кадра/сек
Цветовое пространство : YUV
Субдискретизация насыщенности : 4:2:0
Битовая глубина : 8 бит
Тип развёртки : Прогрессивная
Метод сжатия : С потерями
Бит/(Пиксели*Кадры) : 0.199
Размер потока : 334 Мбайт (84%)
Библиотека кодирования : XviD 64

Аудио #1
Идентификатор : 1
Формат : MPEG Audio
Версия формата : Version 1
Профиль формата : Layer 3
Идентификатор кодека : 55
Идентификатор кодека/Подсказка : MP3
Продолжительность : 33 м.
Вид битрейта : Постоянный
Битрейт : 128 Кбит/сек
Каналы : 1 канал
Частота : 48,0 КГц
Метод сжатия : С потерями
Размер потока : 31,1 Мбайт (8%)
Выравнивание : Соединение по промежуткам
Продолжительность промежутка : 42 мс. (1,00 видеокадр)
Время предзагрузки промежутка : 504 мс.

Аудио #2
Идентификатор : 2
Формат : MPEG Audio
Версия формата : Version 1
Профиль формата : Layer 3
Режим : Joint stereo
Расширение режима : MS Stereo
Идентификатор кодека : 55
Идентификатор кодека/Подсказка : MP3
Продолжительность : 33 м.
Вид битрейта : Переменный
Битрейт : 128 Кбит/сек
Каналы : 2 канала
Частота : 48,0 КГц
Метод сжатия : С потерями
Размер потока : 30,5 Мбайт (8%)
Выравнивание : Соединение по промежуткам
Продолжительность промежутка : 24 мс. (0,58 видеокадр)
Время предзагрузки промежутка : 516 мс.
Библиотека кодирования : LAME3.90.
Настройки программы : -m j -V 4 -q 2 -lowpass 17.6 --abr 128

Внимание! Раздача ведётся путём добавления новых серий; при каждом добавлении создётся новый торрент. Чтобы начать докачку новой серии, пользователям необходимо сделать следующее:
(1) остановить скачивание,
(2) удалить старый торрент у себя из клиента (старые серии удалять не надо),
(3) скачать новый торрент и запустить его у себя в клиенте вместо старого, при этом указать клиенту путь в старую папку куда и должно происходить скачивание новых серий.

Ваш клиент при этом должен произвести хеширование (проверку) старой папки (если не производит сам - помогите ему сделать это), и будет докачивать только те серии которых у вас ещё нет. Старые серии при этом не удаляются, а продолжают раздаваться!

Eсли вы уже удалили старые серии, то предотвратить повторную закачку старых серий можно, отжав галочку в соответсвующих местах при запуске нового торрента. По возможности, желательно не удалять старые серии как можно дольше чтобы релизёр не столько продолжал раздавать старые серии, а смог сконцентрироваться на новых.
Добавлена 12 серия!
Сезон окончен!
pb.wtf



Скачать Обитель лжи через торрент http://pic.kartinco.top/images/2011/bhev6s3fd4.jpg Скачать фильм Обитель лжи через торрент бесплантно в хорошем качестве Описание: Необычный и язвительный взгляд на очень успешного и беспощадного консультанта Марти (Чидл), который не брезгует никакими ... 10 10 3
Info! Золотая раздача, скачанное не засчитывается.
Торрент: Зарегистрирован [2014-01-20 19:05] · скачан: 223 раз
Статус: √ проверено
Размер: 4.15 GB
Как cкачать? Как скачать Обитель лжи через торрент | qTorrent

% Раздел Тема Автор DL S | L
Зарубежные сериалы [ 7.09 GB ] Обитель лжи / House of Lies / Сезон: 3 / Серии: 1-5 из 12 [2014 HDTVRip 720p] MVO [Амедиа] + Original + Subs Messa-fan Скачать
1 | 0
Зарубежные сериалы [ 5.59 GB ] Обитель лжи / House of Lies / Сезон: 4 / Серии: 1-7 из 12 [2015 HDTVRip 720p] MVO + Original + Subs Assasinca Скачать
1 | 0


Последний раз редактировалось: Messa-fan (2012-04-05 14:22), всего редактировалось 11 раз(а)

28-11-2019 20:33  

Отключить всю рекламу на сайте

13-01-2012 16:33 Обитель лжи Скачать торрент  

Пилотная серия неплоха!Рекомендую.pb.wtf



29-01-2012 07:17 Обитель лжи Скачать торрент  

Отличный сериал, даже экономическая лабуда не мешает, но перевод многое решает. Смотрел с другим - не очень понравилось, а NewStudio в самый раз.pb.wtf



13-02-2012 14:49 Обитель лжи Скачать торрент  

Добавлена 5 серия!pb.wtf



20-02-2012 18:39 Обитель лжи Скачать торрент  

Добавлена 6 серия!pb.wtf



28-02-2012 14:03 Обитель лжи Скачать торрент  

Добавлена 7 серия!pb.wtf



09-03-2012 18:05 Обитель лжи Скачать торрент  

Добавлена 8 серия!pb.wtf



15-03-2012 22:09 Обитель лжи Скачать торрент  

Добавлена 9 серия!pb.wtf



16-03-2012 05:10 Обитель лжи Скачать торрент  

толку от того что добавлена, фиг скачаешь, по несколько дней ждать проще вечером с других торентов слить, сидер помойму вообще не желает появляться!pb.wtf



23-03-2012 20:32 Обитель лжи Скачать торрент  

Добавлена 10 серия!pb.wtf



28-03-2012 21:52 Обитель лжи Скачать торрент  

Когда 11 серия будет?pb.wtf



28-03-2012 22:06 Обитель лжи Скачать торрент  

Madisonchik
могу только предположить, что от 2 до 5 дней.pb.wtf



30-03-2012 18:39 Обитель лжи Скачать торрент  

Добавлена 11 серия!pb.wtf



05-04-2012 14:23 Обитель лжи Скачать торрент  

Добавлена 12 серия!
Сезон окончен!
pb.wtf



04-07-2014 14:25 Обитель лжи Скачать торрент  

народ газку поддайтеpb.wtf



    Дорогой пользователь! Огромная просьба, поблагодарите релизера, оцените раздачу и оставьте свои комментарий, если Вы скачали Обитель лжи через торрент бесплатно! Внесите свою лепту в развитие PiratBit!
    Комментировать посты могут только пользователи прошедшие не сложную регистрацию
    Показать сообщения:    

    Обитель лжи через торрент
    Скачать бесплатно Обитель лжи
    Обитель лжи скачать торрент
    Обитель лжи смотреть онлайн
    Cкачать фильм Обитель лжи бесплатно
    Обитель лжи скачать торрент в хорошем качестве
    Обитель лжи смотреть онлайн бесплатно в хорошем качестве


    Вы не можете начинать темы
    Вы не можете отвечать на сообщения
    Вы не можете редактировать свои сообщения
    Вы не можете удалять свои сообщения
    Вы не можете голосовать в опросах
    Вы не можете прикреплять файлы к сообщениям
    Вы можете скачивать файлы