Anonymous, добрый вечер, присоединяйтесь к нам в Telegram!, здесь всегда актуальный адрес сайта, оперативная поддержка и многое другое!

>

5.5

iTunes

7.4

iTunes

7.9

iTunes

1

7.7

1 сезон

6.8

iTunes

7.3

1 сезон

13

6.7

1 сезон

8.3

RePack

30

ULTIMATE

pack

9.9

Лицензия

ВАЖНО

ИГРА 18+

pack

7.3

RePack

MK11

7.7

RePack

jed

7.8

RePack

fifa19

8.5

RePack

RDR2

RePack

NEED FOR SPEED™ PAYBACK

4 сезон

9 сезон

Бесстыжие 9 сезон

Все сериалы

все сериалы на PB.wtf

RePack

FAR CRY 5

Anonymous, добрый вечер, мы катастрофически не успеваем собрать деньги на оплату серверов, помогите нам пожалуйста 5,10,15р., для нас важна любая помощь . В качестве благодарности мы отключим Вам всю рекламу на сайте (укажите свой ник в строку Ваше имя)!

×
  
Magnet ссылка

Родина / Чужой среди своих / Homeland / Сезон: 3 / Серии: 1-12 (12) (Майкл Куэста / Michael Cuesta) [2013, США, триллер, драма, криминал, детектив, WEB-DL 720p] DVO [Кубик в Кубе] + Original pb.wtf

Родина через торрент pb.wtf

Размер: 20.62 GB | Добавлен: 7 лет 9 мес. назад | Торрент скачан:153 раза
Смотреть онлайн Родина | Скачать    Ребята, помогите собрать деньги на оплату серверов!!!

22-12-2013 07:10 Родина Скачать торрент  


«The nation sees a hero. She sees a threat.»
Родина / Чужой среди своих / Homeland
Год выпуска: 2013
Страна: США | Showtime
Жанр: триллер, драма, детектив,
Продолжительность: ~ 00:55:00
Перевод: Профессиональный двухголосый закадровый (Кубик в Кубе)
Субтитры: Английские
Режиссер: Майкл Куэста Лесли Линка Глаттер Кларк Джонсон
В ролях: Клэр Дэйнс, Дамиан Льюис, Морена Баккарин, Дэвид Хэрвуд, Диего Клаттенхофф, Джексон Паке, Моргон Сэйлор, Мэнди Пэтинкин, Дэвид Марсиано, Навид Негабан и др.,
IMDB 8.60 (108 289)

Описание: В центре сюжета находятся сержант морской пехоты ВМФ США Николас Броди, вернувшийся домой после восьми лет отсутствия без вести в Ираке, и Кэрри Мэтисон, офицер ЦРУ, которая подозревает его в причастности к подготовке террористической атаки на Америку.
Качество: WEB-DL 720p
Формат: MKV
Видео кодек: H.264
Аудио кодек: AC3
Видео: 1280x718 (16x9) | 23.976 fps | ~3 929 Kbps | ~0.178 bits/pix
Аудио#1: AC3 | 48KHz | 16bit | 5.1 (6ch) | 384 kbps |Кубик в Кубе|
Аудио#2: AC3 | 48KHz | 16bit | 5.1 (6ch) | 384 kbps |Original|
| Сэмпл (зеркало)
Постер и оформление: Messa-fan

скриншот   скриншот   скриншот   скриншот   скриншот   скриншот   скриншот   скриншот   скриншот   скриншот  

Общее
Уникальный идентификатор : 243414500996072616569990994112972302313 (0xB71FED79984CE97E82B76500D47BA7E9)
Полное имя : Homeland Season 3 720p CasStudio.TV | Homeland.s03e01.rus.eng.720p.CasStudio.TV.mkv
Формат : Matroska
Версия формата : Version 4 / Version 2
Размер файла : 1,94 Гбайт
Продолжительность : 58 м.
Общий поток : 4785 Кбит/сек
Дата кодирования : UTC 2013-10-05 04:34:30
Программа кодирования : mkvmerge v6.0.0 ('Coming Up For Air') built on Jan 20 2013 09:52:00
Библиотека кодирования : libebml v1.3.0 + libmatroska v1.4.0

Видео
Идентификатор : 1
Формат : AVC
Формат/Информация : Advanced Video Codec
Профиль формата : High@L3.1
Параметр CABAC формата : Нет
Параметр ReFrames формата : 2 кадра
Идентификатор кодека : V_MPEG4/ISO/AVC
Продолжительность : 58 м.
Битрейт : 3922 Кбит/сек
Ширина : 1280 пикселей
Высота : 718 пикселей
Соотношение сторон : 16:9
Режим частоты кадров : Постоянный
Частота кадров : 23,976 кадра/сек
Цветовое пространство : YUV
Субдискретизация насыщенности : 4:2:0
Битовая глубина : 8 бит
Тип развёртки : Прогрессивная
Бит/(Пиксели*Кадры) : 0.178
Размер потока : 1,59 Гбайт (82%)
Default : Да
Forced : Нет
Основные цвета : BT.709
Характеристики трансфера : BT.709
Коэффициенты матрицы : BT.709

Аудио #1
Идентификатор : 2
Формат : AC-3
Формат/Информация : Audio Coding 3
Расширение режима : CM (complete main)
Параметр Endianness формата : Big
Идентификатор кодека : A_AC3
Продолжительность : 58 м.
Вид битрейта : Постоянный
Битрейт : 384 Кбит/сек
Каналы : 6 каналов
Расположение каналов : Front: L C R, Side: L R, LFE
Частота : 48,0 КГц
Битовая глубина : 16 бит
Метод сжатия : С потерями
Размер потока : 160 Мбайт (8%)
Язык : Russian
Default : Да
Forced : Нет

Аудио #2
Идентификатор : 3
Формат : AC-3
Формат/Информация : Audio Coding 3
Расширение режима : CM (complete main)
Параметр Endianness формата : Big
Идентификатор кодека : A_AC3
Продолжительность : 58 м.
Вид битрейта : Постоянный
Битрейт : 384 Кбит/сек
Каналы : 6 каналов
Расположение каналов : Front: L C R, Side: L R, LFE
Частота : 48,0 КГц
Битовая глубина : 16 бит
Метод сжатия : С потерями
Размер потока : 160 Мбайт (8%)
Язык : English
Default : Нет
Forced : Нет

Текст
Идентификатор : 4
Формат : UTF-8
Идентификатор кодека : S_TEXT/UTF8
Идентификатор кодека/Информация : UTF-8 Plain Text
Язык : English
Default : Нет
Forced : Нет

Золотой глобус 2013
Лучшая мужская роль на ТВ (драма) Дэмиэн Льюис (Броуди)
Лучшая женская роль на ТВ (драма) Клэр Дэйнс (Кэрри)
Лучший драматический сериал
Эмми 2013
Лучшая женская роль в драматическом сериале Клэр Дэйнс (Кэрри)
Золотой глобус 2012
Лучшая женская роль на ТВ (драма)
Лучший драматический сериал
Эмми 2012
Лучший драматический сериал
Лучшая мужская роль в драматическом сериале Дэмиэн Льюис (Броуди)
Лучшая женская роль в драматическом сериале Клэр Дэйнс (Кэрри)
Номинации 2013
Лучший актёр второго плана мини-сериала или фильма на ТВ Мэнди Пэтинкин (Соул Беренсон)
Лучший драматический сериал
Лучшая мужская роль в драматическом сериале (Дэмиэн Льюис)
Лучший приглашенный актёр в драматическом сериале (Руперт Френд)
Лучшая мужская роль второго плана в драматическом сериале (Мэнди Пэтинкин)
Лучшая женская роль второго плана в драматическом сериале (Морена Баккарин)
Номинации 2012
Лучшая мужская роль на ТВ (драма)
15.12.2013 12 The Star
08.12.2013 11 Big Man in Tehran
01.12.2013 10 Good Night
24.11.2013 09 Horse and Wagon
17.11.2013 08 A Red Wheelbarrow
10.11.2013 07 Gerontion
03.11.2013 06 Still Positive
27.10.2013 05 Yoga Play
20.10.2013 04 Game On
13.10.2013 03 Tower of David
06.10.2013 02 Uh... Oh... Ah...
29.09.2013 01 Tin Man is Down

Раздача с открытым DHT - сиды есть всегда.pb.wtf



Скачать Родина через торрент https://pic1.kartinco.top/images/61/4f6e8.jpg Скачать, смотреть онлайн Родина бесплантно в хорошем качестве Описание: В центре сюжета находятся сержант морской пехоты ВМФ США Николас Броди, вернувшийся домой после восьми лет отсутствия без вести в ... 10 10 3
Info! Золотая раздача, скачанное не засчитывается.
Торрент: Зарегистрирован [2014-01-20 19:09] · скачан: 153 раз
Статус: √ проверено
Размер: 20.62 GB
Как cкачать? Как скачать Родина через торрент | UTorrent

% Раздел Тема Автор DL S | L
Родина / Чужой среди своих / Homeland [ 20.62 GB ] Родина / Чужой среди своих / Homeland / Сезон: 3 / Серии: 1-12 [2013 WEB-DL 720p] MVO [Пифагор по заказу Амедиа] + Original Eng + Sub Messa-fan Скачать
1 | 0

28-11-2019 20:33  

Отключить всю рекламу на сайте

    Дорогой пользователь! Огромная просьба, поблагодарите релизера, оцените раздачу и оставьте свои комментарий, если Вы скачали Родина через торрент бесплатно!
    Комментировать посты могут только пользователи прошедшие не сложную регистрацию
    Показать сообщения:    

    Родина через торрент
    Скачать бесплатно Родина
    Родина скачать торрент
    Родина смотреть онлайн
    Cкачать фильм Родина бесплатно
    Родина скачать торрент в хорошем качестве
    Родина смотреть онлайн бесплатно в хорошем качестве


    Вы не можете начинать темы
    Вы не можете отвечать на сообщения
    Вы не можете редактировать свои сообщения
    Вы не можете удалять свои сообщения
    Вы не можете голосовать в опросах
    Вы не можете прикреплять файлы к сообщениям
    Вы можете скачивать файлы