Ссылка на приватное зеркало нашего сайта всего за 1$. Внимание количество ограничено!!!

2 сезон

iTunes

1 сезон

1

2 сезон

2 сезон

iTunes

1 сезон

RePack

30

Новинка

ВАЖНО

ИГРА 18+

pack

RePack

MK11
pack

Забери бонус

RePack

jed

!!Акция!!

Alien_Rage

RePack

fifa19

RePack

Assassins Creed: Odyssey

RePack

NEED FOR SPEED™ PAYBACK

4 сезон

9 сезон

Бесстыжие 9 сезон

Все сериалы

все сериалы на PB.wtf

RePack

FAR CRY 5
  

Убийство / The Killing / Сезон: 3 / Серии: 1-12 (Полный сезон) (Эдвард Бьянчи, Агнешка Холланд) [2013 г., драма, детектив, триллер, WEB-DLRip] AVO (Ю. Сербин) pb.wtf

Убийство через торрент pb.wtf

Размер: 7.08 GB | Добавлен: 7 лет 3 мес. назад | Торрент скачан:6 раз
Скачать  

05-06-2013 11:28 Убийство Скачать торрент  

Убийство / The KillingГод выпуска: 2013
Страна: США, AMC
Жанр: драма, детектив, триллер,
Продолжительность: ~00:44:00
Перевод: Профессиональный одноголосый закадровый (Ю. Сербин)
Субтитры: нет
Режиссер: Эдвард Бьянчи Агнешка Холланд
В ролях: Mireille Enos, Joel Kinnaman и др.,


Описание: Сериал рассказывает об одном убийстве с трех точек зрения – детективов, приставленных к этому делу, семьи погибшей и подозреваемых. Сюжет также затрагивает местных политиков и их связь с этим делом. Постепенно становится ясно, что здесь нет случайностей, у каждого свой секрет. И хотя персонажи думают, что они продолжают жить дальше, их прошлое еще не оставило их в покое.
Похожие раздачи: The Killing
Качество: WEB-DLRip
Формат: AVI
Видео кодек: XviD
Аудио кодек: AC3
Видео: 720x400 (16:9), ~23,976 fps, ~1250 kbps, ~0.181 bit/pixel
Аудио#1: 48 kHz, 2 ch, 192 kbps - Ю. Сербин
Аудио#2: 48 kHz, 2 ch, 192 kbps - English

General
Complete name : D:РаздачиThe Killing Season III [NovaFilmTV]the.killing.s03e01.webdl.rus.eng.novafilm.tv.avi
Format : AVI
Format/Info : Audio Video Interleave
File size : 509 MiB
Duration : 43mn 3s
Overall bit rate : 1 652 Kbps

Video
ID : 0
Format : MPEG-4 Visual
Format profile : Advanced Simple@L5
Format settings, BVOP : 2
Format settings, QPel : No
Format settings, GMC : No warppoints
Format settings, Matrix : Default (H.263)
Codec ID : XVID
Codec ID/Hint : XviD
Duration : 43mn 3s
Bit rate : 1 250 Kbps
Width : 720 pixels
Height : 400 pixels
Display aspect ratio : 16:9
Frame rate : 23.976 fps
Color space : YUV
Chroma subsampling : 4:2:0
Bit depth : 8 bits
Scan type : Progressive
Compression mode : Lossy
Bits/(Pixel*Frame) : 0.181
Stream size : 385 MiB (76%)
Writing library : XviD 73

Audio #1
ID : 1
Format : AC-3
Format/Info : Audio Coding 3
Mode extension : CM (complete main)
Format settings, Endianness : Big
Codec ID : 2000
Duration : 43mn 3s
Bit rate mode : Constant
Bit rate : 192 Kbps
Channel(s) : 2 channels
Channel positions : Front: L R
Sampling rate : 48.0 KHz
Bit depth : 16 bits
Compression mode : Lossy
Stream size : 59.1 MiB (12%)
Alignment : Aligned on interleaves
Interleave, duration : 32 ms (0.77 video frame)

Audio #2
ID : 2
Format : AC-3
Format/Info : Audio Coding 3
Mode extension : CM (complete main)
Format settings, Endianness : Big
Codec ID : 2000
Duration : 43mn 3s
Bit rate mode : Constant
Bit rate : 192 Kbps
Channel(s) : 2 channels
Channel positions : Front: L R
Sampling rate : 48.0 KHz
Bit depth : 16 bits
Compression mode : Lossy
Stream size : 59.1 MiB (12%)
Alignment : Aligned on interleaves
Interleave, duration : 32 ms (0.77 video frame)

Внимание! Раздача ведётся путём добавления новых серий; при каждом добавлении создётся новый торрент. Чтобы начать докачку новой серии, пользователям необходимо сделать следующее:
(1) остановить скачивание,
(2) удалить старый торрент у себя из клиента (старые серии удалять не надо),
(3) скачать новый торрент и запустить его у себя в клиенте вместо старого, при этом указать клиенту путь в старую папку куда и должно происходить скачивание новых серий.

Ваш клиент при этом должен произвести хеширование (проверку) старой папки (если не производит сам - помогите ему сделать это), и будет докачивать только те серии которых у вас ещё нет. Старые серии при этом не удаляются, а продолжают раздаваться!

Eсли вы уже удалили старые серии, то предотвратить повторную закачку старых серий можно, отжав галочку в соответсвующих местах при запуске нового торрента. По возможности, желательно не удалять старые серии как можно дольше чтобы релизёр не столько продолжал раздавать старые серии, а смог сконцентрироваться на новых.
Добавлены 11 и 12 серии!
Сезон окончен!
pb.wtf



Скачать Убийство через торрент http://i48.fastpic.ru/big/2013/0605/4e/df3f22c40ab97075c980c6a07485e24e.jpg Скачать фильм Убийство через торрент бесплантно в хорошем качестве Описание: Сериал рассказывает об одном убийстве с трех точек зрения – детективов, приставленных к этому делу, семьи погибшей и ... 8.9 10 8
Info! Золотая раздача, скачанное не засчитывается.
Торрент: Зарегистрирован [2013-08-11 15:02] · скачан: 6 раз
Статус: √ проверено
Размер: 7.08 GB
Как cкачать? Как скачать Убийство через торрент | qTorrent

% Раздел Тема Автор DL S | L
Зарубежные сериалы [ 5.8 GB ] Убийство / The Killing / Сезон: 3 / Серии: 1-12 [2013 WEB-DLRip] MVO Messa-fan Скачать
1 | 0


Последний раз редактировалось: Messa-fan (2013-08-11 15:02), всего редактировалось 8 раз(а)

28-11-2019 20:33  

Отключить всю рекламу на сайте

05-06-2013 12:26 Убийство Скачать торрент  

Надо ждать ЛОСТФИЛЬМ!pb.wtf



05-06-2013 12:43 Убийство Скачать торрент  

2 серии вышло , а на Лостфильм тишина - придётся смотреть так!!! Надеюсь у Новы тоже хорошо получается!!!pb.wtf



11-06-2013 19:09 Убийство Скачать торрент  

Добавлена 3 серия!pb.wtf



18-06-2013 14:12 Убийство Скачать торрент  

Добавлена 4 серия!pb.wtf



28-06-2013 12:33 Убийство Скачать торрент  

Добавлена 5 серия!pb.wtf



03-07-2013 22:00 Убийство Скачать торрент  

Добавлена 6 серия!pb.wtf



21-07-2013 16:02 Убийство Скачать торрент  

Добавлена 7 и 8 серия! pb.wtf



27-07-2013 05:54 Убийство Скачать торрент  

Добавлена 9 серия!pb.wtf



09-08-2013 08:37 Убийство Скачать торрент  

Добавлена 10 серия!pb.wtf



11-08-2013 15:03 Убийство Скачать торрент  

Добавлены 11 и 12 серии!
Сезон окончен!
pb.wtf



16-11-2013 05:44 Убийство Скачать торрент  

Код:

The Killing не спешит умирать.

Netflix заключил сделку с Fox Television Studios о продлении дождливого детектива на четвертый сезон. Все верно, The Killing вернулся к жизни во второй раз.

AMC закрыл The Killing в прошлом году после второго сезона, однако тогда студия и Netflix смогли договориться возродить шоу. Третий сезон вышел этим летом на AMC и показал относительно неплохие рейтинги (финал сезона посмотрело 1.5 миллиона зрителей). В сентябре AMC убил «Убийство» во второй раз.

Однако, как и в случае с зомби, The Killing нужно целиться в голову. Netflix покажет финальные шесть эпизодов The Killing, которые завершат сериал. Исполнители главных ролей и шоураннер уже на борту.

«Богатая, интригующая история The Killing хорошо прижилась на Netflix, и мы полагаем, что детективы Сара Линден и Стивен Холден заслужили достойное прощание, — заявила вице-президент по оригинальному контекту Netflix Синди Холланд. — Мы рассчитываем порадовать новых и старых фанатов сериалом, который идеально подходит для нашего ресурса».

Четвертый сезон The Killing станет экслюзивом Netflix, так как об участии AMC в сделке речи не шло.

Telestrekoza©pb.wtf



    Дорогой пользователь! Огромная просьба, поблагодарите релизера, оцените раздачу и оставьте свои комментарий, если Вы скачали Убийство через торрент бесплатно! Внесите свою лепту в развитие PiratBit!
    Комментировать посты могут только пользователи прошедшие не сложную регистрацию
    Показать сообщения:    

    Убийство через торрент
    Скачать бесплатно Убийство
    Убийство скачать торрент
    Убийство смотреть онлайн
    Cкачать фильм Убийство бесплатно
    Убийство скачать торрент в хорошем качестве
    Убийство смотреть онлайн бесплатно в хорошем качестве


    Вы не можете начинать темы
    Вы не можете отвечать на сообщения
    Вы не можете редактировать свои сообщения
    Вы не можете удалять свои сообщения
    Вы не можете голосовать в опросах
    Вы не можете прикреплять файлы к сообщениям
    Вы можете скачивать файлы