Ссылка на приватное зеркало всего за 1$. Внимание количество ограничено!!!

iTunes

iTunes

iTunes

1

iTunes

iTunes

iTunes

iTunes

iTunes

30
pack

$ от Little Big

ВАЖНО

!!Акция!!

Alien_RageХит недели

RePack

Resident Evil 21

ИГРА 18+

pack

RePack

jed

!!Акция!!

Alien_Rage

RePack

fifa19

RePack

Assassins Creed: Odyssey

RePack

NEED FOR SPEED™ PAYBACK

4 сезон

9 сезон

Бесстыжие 9 сезон

Все сериалы

все сериалы на PB.wtf

RePack

FAR CRY 5
  

Элисон Стар: Тренировка в спортзале под хорошую музыку 3Д / Alison Star 3D: A la sueur de son foutre 3D (Herve Bodilis) [2012 г., All sex, Big tits, Sport, 3D порно, BDRip 1080p, Оригинал] pb.wtf

Элисон Стар: Тренировка в спортзале под хорошую музыку 3Д через торрент pb.wtf

Размер: 1.44 GB | Добавлен: 6 лет 4 мес. назад | Торрент скачан:997 раз
Скачать  

21-01-2014 09:51 Элисон Стар: Тренировка в спортзале под хорошую музыку 3Д Скачать торрент  

Элисон Стар: Тренировка в спортзале под хорошую музыку 3Д
Alison 3D: A la sueur de son foutre 3D




Год выпуска: 2012
Страна: France
Жанр: All sex, Big tits, Sport, 3D порно,
Продолжительность: 00:20:56
Язык: Francais
Перевод: Оригинал

Режиссер: Herve Bodilis
Студия: Marc Dorcel

В ролях: Alison Star,

Описание: Спортзал не для того, чтобы гири тягать, а для того, чтобы мять большие сиськи.

Качество 3D: Half SideBySide / Горизонтальная анаморфная стереопара
Качество: BDRip 1080p
Формат: WMV
Видео кодек: Windows Media
Аудио кодек: WMA
Видео: Windows Media Video 9 / 1920x1080 / 25.00fps / 9863 kbps
Аудио: Windows Media Audio / 44100Hz / stereo / 128 kbps







General
Complete name : D:!!!XXXA la sueur de son foutre 3D 2012 BDRip halfSBS 1080p (IgorekSh).wmv
Format : Windows Media
File size : 1.44 GiB
Duration : 20mn 56s
Overall bit rate mode : Constant
Overall bit rate : 9 836 Kbps
Maximum Overall bit rate : 10.1 Mbps
Encoded date : UTC 2011-05-18 19:13:36.958

Video
ID : 2
Format : VC-1
Format profile : MP@HL
Codec ID : WMV3
Codec ID/Info : Windows Media Video 9
Codec ID/Hint : WMV3
Description of the codec : Windows Media Video 9 - Professional
Duration : 20mn 56s
Bit rate mode : Constant
Bit rate : 9 863 Kbps
Width : 1 920 pixels
Height : 1 080 pixels
Display aspect ratio : 16:9
Frame rate : 25.000 fps
Bit depth : 8 bits
Scan type : Progressive
Compression mode : Lossy
Bits/(Pixel*Frame) : 0.190
Stream size : 1.44 GiB
Language : French

Audio
ID : 1
Format : WMA
Format version : Version 2
Codec ID : 161
Codec ID/Info : Windows Media Audio
Description of the codec : Windows Media Audio 9.1 - 128 kbps, 44 kHz, stereo (A/V) 1-pass CBR
Duration : 20mn 56s
Bit rate mode : Constant
Bit rate : 128 Kbps
Channel(s) : 2 channels
Sampling rate : 44.1 KHz
Bit depth : 16 bits
Stream size : 19.2 MiB (1%)
Language : French

pb.wtf



pack Скачать Элисон Стар: Тренировка в спортзале под хорошую музыку 3Д через торрент http://pic.kartinco.top/images/6/ddkbi.jpg Скачать фильм Элисон Стар: Тренировка в спортзале под хорошую музыку 3Д через торрент бесплантно в хорошем качестве Описание: Спортзал не для того, чтобы гири тягать, а для того, чтобы мять большие ... 9.7 10 21
Info! Золотая раздача, скачанное не засчитывается.
Торрент: Зарегистрирован [2014-01-21 09:51] · скачан: 997 раз
Статус: √ проверено
Размер: 1.44 GB
Как cкачать? Как скачать Элисон Стар: Тренировка в спортзале под хорошую музыку 3Д через торрент | qTorrent

28-11-2019 20:33  

Отключить всю рекламу на сайте

21-01-2014 10:01 Элисон Стар: Тренировка в спортзале под хорошую музыку 3Д Скачать торрент  

[хахахах прикол порнуха на главной эт чет новоеpb.wtf



pack
    Дорогой пользователь! Огромная просьба, поблагодарите релизера, оцените раздачу и оставьте свои комментарий, если Вы скачали Элисон Стар: Тренировка в спортзале под хорошую музыку 3Д через торрент бесплатно! Внесите свою лепту в развитие PiratBit!
    Комментировать посты могут только пользователи прошедшие не сложную регистрацию
    Показать сообщения:    

    Элисон Стар: Тренировка в спортзале под хорошую музыку 3Д через торрент
    Скачать бесплатно Элисон Стар: Тренировка в спортзале под хорошую музыку 3Д
    Элисон Стар: Тренировка в спортзале под хорошую музыку 3Д скачать торрент
    Элисон Стар: Тренировка в спортзале под хорошую музыку 3Д смотреть онлайн
    Cкачать фильм Элисон Стар: Тренировка в спортзале под хорошую музыку 3Д бесплатно
    Элисон Стар: Тренировка в спортзале под хорошую музыку 3Д скачать торрент в хорошем качестве
    Элисон Стар: Тренировка в спортзале под хорошую музыку 3Д смотреть онлайн бесплатно в хорошем качестве


    Вы не можете начинать темы
    Вы не можете отвечать на сообщения
    Вы не можете редактировать свои сообщения
    Вы не можете удалять свои сообщения
    Вы не можете голосовать в опросах
    Вы не можете прикреплять файлы к сообщениям
    Вы можете скачивать файлы