Ссылка на приватное зеркало всего за 1$. Внимание количество ограничено!!!

iTunes

iTunes

iTunes

1

iTunes

iTunes

iTunes

iTunes

iTunes

30
pack

Новость дня

ВАЖНО

!!Акция!!

Alien_RageХит недели

RePack

Resident Evil 21

ИГРА 18+

pack

RePack

jed

!!Акция!!

Alien_Rage

RePack

fifa19

RePack

Assassins Creed: Odyssey

RePack

NEED FOR SPEED™ PAYBACK

4 сезон

9 сезон

Бесстыжие 9 сезон

Все сериалы

все сериалы на PB.wtf

RePack

FAR CRY 5
  

Мерси боку 01 в 3Д / 3D Merci Beaucoup 01 [2013 г., 3D, Dildos/Vibrators, Japanese Review, Beautiful Breast, All Sex, Pretty Face, Sexy Leg, Blowjobs, BDRip 1080p, Оригинал] pb.wtf

Мерси боку 01 в 3Д через торрент pb.wtf

Размер: 8.26 GB | Добавлен: 6 лет 4 мес. назад | Торрент скачан:385 раз
Скачать  

21-01-2014 10:22 Мерси боку 01 в 3Д Скачать торрент  

Мерси боку 01 в 3Д
3D Merci Beaucoup 01




Год выпуска: 2013
Страна: Japan
Жанр: 3D, Dildos/Vibrators, Japanese Review, Beautiful Breast, All Sex, Pretty Face, Sexy Leg, Blowjobs,
Продолжительность: 01:32:01
Язык: Japan
Перевод: Оригинал

Цензура: Отсутствует

Студия: Merci Beaucoup
Студийный код фильма: MCB3DBD-01

В ролях: Rie Tachikawa,

Описание: Fan of Asian fellatio? Check out this HOT Asian sex gallery featuring the most skilled cocksuckers in Asia.

Тип HD видео: 1080p
Формат 3D: Half SideBySide / Горизонтальная анаморфная стереопара
Качество: BDRip 1080p
Формат: MKV
Видео кодек: H.264/AVC
Аудио кодек: AAC
Видео: MPEG4 Video (H264) / 1920x1080 / 23.976 fps / 12.2 Mbps
Аудио: Japanese / Dolby AC3 / 2 ch / 48 kHz / 384 kbps






Format : Matroska
File size : 8.26 GiB
Duration : 1h 32mn
Overall bit rate : 12.8 Mbps
Movie name : [torrent3d.ru]
Encoded date : UTC 2013-12-04 13:17:13
Writing application : mkvmerge v4.0.0 ('The Stars were mine') от Jun 6 2010 16:18:42
Writing library : libebml v1.0.0 + libmatroska v1.0.0

Video
ID : 1
Format : AVC
Format/Info : Advanced Video Codec
Format profile : High@L4.1
Format settings, CABAC :
Format settings, ReFrames : 2 frames
Muxing mode : Container profile=Unknown@4.1
Codec ID : V_MPEG4/ISO/AVC
Duration : 1h 32mn
Bit rate : 12.2 Mbps
Width : 1 920 pixels
Height : 1 080 pixels
Display aspect ratio : 16:9
Frame rate : 23.976 fps
Color space : YUV
Chroma subsampling : 4:2:0
Bit depth : 8 bits
Scan type : Progressive
Bits/(Pixel*Frame) : 0.245
Stream size : 7.85 GiB (95%)

Audio
ID : 2
Format : AC-3
Format/Info : Audio Coding 3
Mode extension : CM (complete main)
Codec ID : A_AC3
Duration : 1h 32mn
Bit rate mode : Constant
Bit rate : 384 Kbps
Channel(s) : 2 channels
Channel positions : Front: L R
Sampling rate : 48.0 KHz
Stream size : 253 MiB (3%)
Language : Japanese

Menu
00:00:00.000 : en:(01)00:00:00:000
00:10:00.600 : en:(02)00:10:00:600
00:20:01.200 : en:(03)00:20:01:200
00:29:49.496 : en:(04)00:29:49:496
00:43:42.995 : en:(05)00:43:42:995
00:53:43.595 : en:(06)00:53:43:595
01:03:44.195 : en:(07)01:03:44:195
01:14:09.945 : en:(08)01:14:09:945
01:26:30.894 : en:(09)01:26:30:894
01:32:12.860 : en:(10)01:32:12:860

pb.wtf



pack Скачать Мерси боку 01 в 3Д через торрент http://pic.kartinco.top/images/6/9ieq1.jpg Скачать фильм Мерси боку 01 в 3Д через торрент бесплантно в хорошем качестве Описание: Fan of Asian fellatio? Check out this HOT Asian sex gallery featuring the most skilled cocksuckers in Asia.Тип HD видео: ... 10 10 8
Info! Золотая раздача, скачанное не засчитывается.
Торрент: Зарегистрирован [2014-01-21 10:22] · скачан: 385 раз
Статус: √ проверено
Размер: 8.26 GB
Как cкачать? Как скачать Мерси боку 01 в 3Д через торрент | qTorrent

% Раздел Тема Автор DL S | L
3D порно [ 7.84 GB ] Мерси боку 02 в 3Д / 3D Merci Beaucoup 02 [2013 3D Dildos/Vibrators Japanese Review Beautiful Breast All Sex Pretty Face Sexy Leg Blowjobs BDRip 1080p Оригинал] 19alexei87 Скачать
1 | 0

28-11-2019 20:33  

Отключить всю рекламу на сайте

    Дорогой пользователь! Огромная просьба, поблагодарите релизера, оцените раздачу и оставьте свои комментарий, если Вы скачали Мерси боку 01 в 3Д через торрент бесплатно! Внесите свою лепту в развитие PiratBit!
    Комментировать посты могут только пользователи прошедшие не сложную регистрацию
    Показать сообщения:    

    Мерси боку 01 в 3Д через торрент
    Скачать бесплатно Мерси боку 01 в 3Д
    Мерси боку 01 в 3Д скачать торрент
    Мерси боку 01 в 3Д смотреть онлайн
    Cкачать фильм Мерси боку 01 в 3Д бесплатно
    Мерси боку 01 в 3Д скачать торрент в хорошем качестве
    Мерси боку 01 в 3Д смотреть онлайн бесплатно в хорошем качестве


    Вы не можете начинать темы
    Вы не можете отвечать на сообщения
    Вы не можете редактировать свои сообщения
    Вы не можете удалять свои сообщения
    Вы не можете голосовать в опросах
    Вы не можете прикреплять файлы к сообщениям
    Вы можете скачивать файлы