Ссылка на приватное зеркало всего за 1$. Внимание количество ограничено!!!

iTunes

iTunes

iTunes

1

iTunes

iTunes

iTunes

iTunes

iTunes

30
pack

Новость дня

ВАЖНО

!!Акция!!

Alien_RageХит недели

RePack

Resident Evil 21

ИГРА 18+

pack

RePack

jed

!!Акция!!

Alien_Rage

RePack

fifa19

RePack

Assassins Creed: Odyssey

RePack

NEED FOR SPEED™ PAYBACK

4 сезон

9 сезон

Бесстыжие 9 сезон

Все сериалы

все сериалы на PB.wtf

RePack

FAR CRY 5
  

Мерси боку 02 в 3Д / 3D Merci Beaucoup 02 [2013 г., 3D, Dildos/Vibrators, Japanese Review, Beautiful Breast, All Sex, Pretty Face, Sexy Leg, Blowjobs, BDRip 1080p, Оригинал] pb.wtf

Мерси боку 02 в 3Д через торрент pb.wtf

Размер: 7.84 GB | Добавлен: 6 лет 4 мес. назад | Торрент скачан:382 раза
Скачать  

21-01-2014 10:58 Мерси боку 02 в 3Д Скачать торрент  

Мерси боку 02 в 3Д
3D Merci Beaucoup 02




Год выпуска: 2013
Страна: Japan
Жанр: 3D, Dildos/Vibrators, Japanese Review, Beautiful Breast, All Sex, Pretty Face, Sexy Leg, Blowjobs,
Продолжительность: 01:27:32
Язык: Japanese
Перевод: Оригинал

Цензура: Отсутствует

Студия: Merci Beaucoup
Студийный код фильма: MCB3DBD-02

В ролях: Hina Misaki,

Описание: Fan of Asian fellatio? Check out this HOT Asian sex gallery featuring the most skilled cocksuckers in Asia.

Тип HD видео: 1080p
Формат 3D: Half SideBySide / Горизонтальная анаморфная стереопара
Качество: BDRip 1080p
Формат: MKV
Видео кодек: H.264/AVC
Аудио кодек: AC3
Видео: MPEG4 Video (H264) / 1920x1080 / 23.976 fps / 12.2 Mbps
Аудио: Japanese / Dolby AC3 / 2 ch / 48 kHz / 384 kbps





Format : Matroska
File size : 7.84 GiB
Duration : 1h 27mn
Overall bit rate : 12.8 Mbps
Movie name : [torrent3d.ru]
Encoded date : UTC 2013-12-04 13:38:21
Writing application : mkvmerge v4.0.0 ('The Stars were mine') от Jun 6 2010 16:18:42
Writing library : libebml v1.0.0 + libmatroska v1.0.0

Video
ID : 1
Format : AVC
Format/Info : Advanced Video Codec
Format profile : High@L4.1
Format settings, CABAC : Yes
Format settings, ReFrames : 2 frames
Muxing mode : Container profile=Unknown@4.1
Codec ID : V_MPEG4/ISO/AVC
Duration : 1h 27mn
Bit rate : 12.2 Mbps
Width : 1 920 pixels
Height : 1 080 pixels
Display aspect ratio : 16:9
Frame rate : 23.976 fps
Color space : YUV
Chroma subsampling : 4:2:0
Bit depth : 8 bits
Scan type : Progressive
Bits/(Pixel*Frame) : 0.245
Stream size : 7.45 GiB (95%)
Writing library : x264 core
Color primaries : BT.709-5, BT.1361, IEC 61966-2-4, SMPTE RP177
Transfer characteristics : BT.709-5, BT.1361
Matrix coefficients : BT.709-5, BT.1361, IEC 61966-2-4 709, SMPTE RP177

Audio
ID : 2
Format : AC-3
Format/Info : Audio Coding 3
Mode extension : CM (complete main)
Codec ID : A_AC3
Duration : 1h 27mn
Bit rate mode : Constant
Bit rate : 384 Kbps
Channel(s) : 2 channels
Channel positions : Front: L R
Sampling rate : 48.0 KHz
Stream size : 240 MiB (3%)
Language : Japanese

Menu
00:00:00.000 : en01)00:00:00:000
00:10:00.600 : en02)00:10:00:600
00:20:01.200 : en03)00:20:01:200
00:26:00.892 : en04)00:26:00:892
00:37:22.573 : en05)00:37:22:573
00:47:23.173 : en06)00:47:23:173
00:57:23.773 : en07)00:57:23:773
01:06:54.385 : en08)01:06:54:385
01:16:54.985 : en09)01:16:54:985
01:27:33.289 : en10)01:27:33:289

pb.wtf



pack Скачать Мерси боку 02 в 3Д через торрент http://pic.kartinco.top/images/6/7zuez.jpg Скачать фильм Мерси боку 02 в 3Д через торрент бесплантно в хорошем качестве Описание: Fan of Asian fellatio? Check out this HOT Asian sex gallery featuring the most skilled cocksuckers in Asia.Тип HD видео: ... 10 10 7
Info! Золотая раздача, скачанное не засчитывается.
Торрент: Зарегистрирован [2014-01-21 10:58] · скачан: 382 раз
Статус: √ проверено
Размер: 7.84 GB
Как cкачать? Как скачать Мерси боку 02 в 3Д через торрент | qTorrent

28-11-2019 20:33  

Отключить всю рекламу на сайте

    Дорогой пользователь! Огромная просьба, поблагодарите релизера, оцените раздачу и оставьте свои комментарий, если Вы скачали Мерси боку 02 в 3Д через торрент бесплатно! Внесите свою лепту в развитие PiratBit!
    Комментировать посты могут только пользователи прошедшие не сложную регистрацию
    Показать сообщения:    

    Мерси боку 02 в 3Д через торрент
    Скачать бесплатно Мерси боку 02 в 3Д
    Мерси боку 02 в 3Д скачать торрент
    Мерси боку 02 в 3Д смотреть онлайн
    Cкачать фильм Мерси боку 02 в 3Д бесплатно
    Мерси боку 02 в 3Д скачать торрент в хорошем качестве
    Мерси боку 02 в 3Д смотреть онлайн бесплатно в хорошем качестве


    Вы не можете начинать темы
    Вы не можете отвечать на сообщения
    Вы не можете редактировать свои сообщения
    Вы не можете удалять свои сообщения
    Вы не можете голосовать в опросах
    Вы не можете прикреплять файлы к сообщениям
    Вы можете скачивать файлы