Присоединяйтесь к нам в Telegram!, здесь всегда актуальный адрес сайта, оперативная поддержка и многое другое!!

>

5.9

iTunes

7.4

iTunes

9.4

1 сезон

1

7.4

2 сезон

7.2

iTunes

7.3

1 сезон

13

6.1

iTunes

8.3

GOG

30

ULTIMATE

pack

9.9

Лицензия

ВАЖНО

ИГРА 18+

pack

7.3

RePack

MK11

7.7

RePack

jed

7.8

RePack

fifa19

8.5

RePack

RDR2

RePack

NEED FOR SPEED™ PAYBACK

5 сезон

9 сезон

Бесстыжие 9 сезон

Все сериалы

все сериалы на PB.wtf

RePack

FAR CRY 5

Anonymous, доброе утро, мы катастрофически не успеваем собрать деньги на оплату серверов, помогите нам пожалуйста 5,10,15р., для нас важна любая помощь . В качестве благодарности мы отключим Вам всю рекламу на сайте (укажите свой ник в строку Ваше имя)!

×
  
Magnet ссылка

Видео от Motley Crue / Motley Crue - The Videos [1984 г., Heavy metal, glam metal, hard rock, DVDRip] pb.wtf

Видео от Motley Crue через торрент pb.wtf

Размер: 1.33 GB | Добавлен: 7 лет 10 мес. назад | Торрент скачан:17 раз
Смотреть онлайн Видео от Motley Crue | Скачать    Ребята, помогите собрать деньги на оплату серверов!!!

21-01-2014 12:28 Видео от Motley Crue Скачать торрент  

Видео от Motley Crue
Год выпуска: 1984-2008
Страна: США
Жанр: Heavy metal, glam metal, hard rock
Продолжительность: 01:34:36
Перевод: Оригинал

В ролях: Motley Crue

Описание: Mötley Crüe — американская глэм-метал группа, основанная в Лос-Анджелесе в 1981 году. Является ярчайшим представителем этого жанра и одним из его стержней. Группа была создана бас-гитаристом Никки Сиксом и барабанщиком Томми Ли, впоследствии к которым присоединились гитарист Мик Марс и вокалист Винс Нил. За историю Mötley Crüe было продано более 80 миллионов копий альбомов по всему миру, включая 25 миллионов в США. Кроме того члены группы известны по своим образам «суровой жизни»; все участники имели многочисленные проблемы с законом, сидели в тюрьме, прошли через зависимость от алкоголя и наркотиков, имели бесчисленные авантюры с женщинами.
1 Motley Crue - Afraid 1997
2 Motley Crue - Anarchy In The U.K. 1991
3 Motley Crue - Don't Go Away Mad (Just Go Away) 1990.
4 Motley Crue - Dr. Feelgood 1989
5 Motley Crue - Girls, Girls, Girls 1987
6 Motley Crue - Hell On High Heels 2001
7 Motley Crue - Home Sweet Home '91
8 Motley Crue - Hooligan's Holiday 1994
9 Motley Crue - If I Die Tomorrow 2004
10 Motley Crue - Kickstart My Heart 1989
11 Motley Crue - Looks That Kill 1984
12 Motley Crue - Misunderstood 1994
13 Motley Crue - Mutherfucker of the Year 2008
14 Motley Crue - Primal Scream 1991
15 Motley Crue - Saints of Los Angeles 2008
16 Motley Crue - Same Ol' Situation (S.O.S.) 1990
17 Motley Crue - Sick Love Song 2005
18 Motley Crue - Smoke The Sky 1994
19 Motley Crue - Too Young To Fall In Love 1984
20 Motley Crue - Wild Side 1987
21 Motley Crue - Without You 1990
22 Motley Crue - You're All That I Need 1987
Качество: DVDRip
Формат: AVI
Видео кодек: XviD
Аудио кодек: AC3
Видео: Xvid 576x432 25.00fps 1 854 Kbps
Аудио: Dolby AC3 48000Hz stereo 192kbps
Релиз от: yaguar





General
Complete name : K:Motley CrueMotley Crue - Anarchy In The U.K. 1991.avi
Format : AVI
Format/Info : Audio Video Interleave
File size : 48.1 MiB
Duration : 3mn 16s
Overall bit rate : 2 057 Kbps
Writing application : VirtualDubMod 1.5.10.2 (build 2540/release)
Writing library : VirtualDubMod build 2540/release

Video
ID : 0
Format : MPEG-4 Visual
Format profile : Advanced Simple@L5
Format settings, BVOP : 1
Format settings, QPel : No
Format settings, GMC : No warppoints
Format settings, Matrix : Default (H.263)
Codec ID : XVID
Codec ID/Hint : XviD
Duration : 3mn 16s
Bit rate : 1 854 Kbps
Width : 576 pixels
Height : 432 pixels
Display aspect ratio : 4:3
Frame rate : 25.000 fps
Color space : YUV
Chroma subsampling : 4:2:0
Bit depth : 8 bits
Scan type : Progressive
Compression mode : Lossy
Bits/(Pixel*Frame) : 0.298
Stream size : 43.4 MiB (90%)
Writing library : XviD 1.2.1 (UTC 2008-12-04)

Audio
ID : 1
Format : AC-3
Format/Info : Audio Coding 3
Mode extension : CM (complete main)
Codec ID : 2000
Duration : 3mn 16s
Bit rate mode : Constant
Bit rate : 192 Kbps
Channel(s) : 2 channels
Channel positions : Front: L R
Sampling rate : 48.0 KHz
Bit depth : 16 bits
Compression mode : Lossy
Stream size : 4.49 MiB (9%)
Alignment : Aligned on interleaves
Interleave, duration : 40 ms (1.00 video frame)
Interleave, preload duration : 512 ms

pb.wtf



Скачать Видео от Motley Crue через торрент https://pic1.kartinco.top/images/61/lrzg5.jpg Скачать, смотреть онлайн Видео от Motley Crue бесплантно в хорошем качестве Описание: Mötley Crüe — американская глэм-метал группа, основанная в Лос-Анджелесе в 1981 году. Является ярчайшим представителем этого ... 10 10 4
Info! Золотая раздача, скачанное не засчитывается.
Торрент: Зарегистрирован [2014-01-21 12:28] · скачан: 17 раз
Статус: √ проверено
Размер: 1.33 GB
Как cкачать? Как скачать Видео от Motley Crue через торрент | UTorrent

28-11-2019 20:33  

Отключить всю рекламу на сайте

    Дорогой пользователь! Огромная просьба, поблагодарите релизера, оцените раздачу и оставьте свои комментарий, если Вы скачали Видео от Motley Crue через торрент бесплатно!
    Комментировать посты могут только пользователи прошедшие не сложную регистрацию
    Показать сообщения:    

    Видео от Motley Crue через торрент
    Скачать бесплатно Видео от Motley Crue
    Видео от Motley Crue скачать торрент
    Видео от Motley Crue смотреть онлайн
    Cкачать фильм Видео от Motley Crue бесплатно
    Видео от Motley Crue скачать торрент в хорошем качестве
    Видео от Motley Crue смотреть онлайн бесплатно в хорошем качестве


    Вы не можете начинать темы
    Вы не можете отвечать на сообщения
    Вы не можете редактировать свои сообщения
    Вы не можете удалять свои сообщения
    Вы не можете голосовать в опросах
    Вы не можете прикреплять файлы к сообщениям
    Вы можете скачивать файлы