Ссылка на приватное зеркало нашего сайта всего за 1$. Внимание количество ограничено!!!

2 сезон

iTunes

1 сезон

1

iTunes

iTunes

iTunes

1 сезон

RePack

30

ИГРА 18+

pack

ВАЖНО

!!Акция!!

Alien_RageХит недели

RePack

MK11
pack

Забери бонус

RePack

jed

!!Акция!!

Alien_Rage

RePack

fifa19

RePack

Assassins Creed: Odyssey

RePack

NEED FOR SPEED™ PAYBACK

4 сезон

9 сезон

Бесстыжие 9 сезон

Все сериалы

все сериалы на PB.wtf

RePack

FAR CRY 5
  

В долине Эла / In the Valley of Elah (Пол Хаггис) [2007 г., триллер, драма, криминал, детектив, BDRip 720p, Дубляж] pb.wtf

В долине Эла через торрент pb.wtf

Размер: 5.69 GB | Добавлен: 6 лет 9 мес. назад | Торрент скачан:156 раз
Скачать  

21-01-2014 16:06 В долине Эла Скачать торрент  

В долине Эла / In the Valley of Elah

Год выпуска: 2007
Страна: США
Жанр: триллер, драма, криминал, детектив
Продолжительность: 02:01:17
Перевод: Дубляж
Субтитры: Russian , English

Режиссер: Пол Хаггис
Продюссер: Лоуренс Бекси, Пол Хаггис, Дарлен Каамано
Сценарий: Пол Хаггис, Марк Боал
Бюджет: $6 777 741
Премьера в мире: 1 сентября 2007

IMDB 7.20 (51 819)


В ролях: Томми Ли Джонс, Шарлиз Терон, Сьюзен Сарандон, Джеймс Франко, Джош Бролин, Джейсон Патрик, Уэйн Дюволл, Фрэнсис Фишер, Джонатан Такер, Рик Гонзалез, Бэрри Корбин, Брент Бриско, Зои Кэзен, Кэти Лэмкин, Джуди Марте, Джек Меррилл, Гленн Таранто, Дженнифер Сибел

Описание: Фильм повествует об офицере, чей сын-солдат немотивированно отправляется в самоволку вскоре после возвращения в Штаты из Ирака, и исчезает без следа. Местный полицейский детектив берется помочь офицеру в расследовании...

Доп. информация: Снято по реальным событиям.

Качество: BDRip 720p
Формат: MKV
Видео кодек: AVC
Аудио кодек: AC3
Видео: MPEG-4 AVC Video, 1280x532, 5 301 kbps, 23,976 fps, Bits/Pixel*Frame: 0.325
Аудио#1: AC3, 6 ch, 48 kHz, 640 kbps - Дублированный
Аудио#2: AC3, 6 ch, 48 kHz, 640 kbps - English
General
Unique ID : 194533815834028593793679780589565537746 (0x9259D9A0E0FDA580A6B33DCF97A66DD2)
Complete name : /etc/seedbox/home/eruslannr/data/V doline Ela.(2007).BDRip.720p.[denis100].mkv
Format : Matroska
Format version : Version 2
File size : 5.69 GiB
Duration : 2h 1mn
Overall bit rate : 6 714 Kbps
Movie name : V doline Ela.(2007).BDRip.720p
Encoded date : UTC 2014-01-18 21:00:35
Writing application : mkvmerge v5.8.0 ('No Sleep / Pillow') built on Sep 2 2012 15:37:04
Writing library : libebml v1.2.3 + libmatroska v1.3.0

Video
ID : 1
Format : AVC
Format/Info : Advanced Video Codec
Format profile : High@L4.1
Format settings, CABAC : Yes
Format settings, ReFrames : 11 frames
Codec ID : V_MPEG4/ISO/AVC
Duration : 2h 1mn
Bit rate : 5 301 Kbps
Width : 1 280 pixels
Height : 532 pixels
Display aspect ratio : 2.40:1
Frame rate mode : Constant
Frame rate : 23.976 fps
Color space : YUV
Chroma subsampling : 4:2:0
Bit depth : 8 bits
Scan type : Progressive
Bits/(Pixel*Frame) : 0.325
Stream size : 4.49 GiB (79%)
Title : V doline Ela.(2007).BDRip.720p от _denis_100
Writing library : x264 core 140 r2377 1ca7bb9
Encoding settings : cabac=1 / ref=11 / deblock=1:-3:-3 / analyse=0x3:0x133 / me=umh / subme=11 / psy=1 / psy_rd=1.00:0.10 / mixed_ref=1 / me_range=32 / chroma_me=1 / trellis=2 / 8x8dct=1 / cqm=0 / deadzone=21,11 / fast_pskip=0 / chroma_qp_offset=-3 / threads=6 / lookahead_threads=1 / sliced_threads=0 / nr=0 / decimate=0 / interlaced=0 / bluray_compat=0 / constrained_intra=0 / bframes=8 / b_pyramid=2 / b_adapt=2 / b_bias=0 / direct=3 / weightb=1 / open_gop=0 / weightp=2 / keyint=240 / keyint_min=23 / scenecut=40 / intra_refresh=0 / rc=crf / mbtree=0 / crf=18.0 / qcomp=0.60 / qpmin=0 / qpmax=69 / qpstep=4 / ip_ratio=1.40 / pb_ratio=1.30 / aq=1:0.80
Language : English
Default : Yes
Forced : No

Audio #1
ID : 2
Format : AC-3
Format/Info : Audio Coding 3
Mode extension : CM (complete main)
Format settings, Endianness : Big
Codec ID : A_AC3
Duration : 2h 1mn
Bit rate mode : Constant
Bit rate : 640 Kbps
Channel count : 6 channels
Channel positions : Front: L C R, Side: L R, LFE
Sampling rate : 48.0 KHz
Bit depth : 16 bits
Compression mode : Lossy
Stream size : 555 MiB (10%)
Title : Дублированный
Language : Russian
Default : Yes
Forced : No

Audio #2
ID : 3
Format : AC-3
Format/Info : Audio Coding 3
Mode extension : CM (complete main)
Format settings, Endianness : Big
Codec ID : A_AC3
Duration : 2h 1mn
Bit rate mode : Constant
Bit rate : 640 Kbps
Channel count : 6 channels
Channel positions : Front: L C R, Side: L R, LFE
Sampling rate : 48.0 KHz
Bit depth : 16 bits
Compression mode : Lossy
Stream size : 555 MiB (10%)
Title : English
Language : English
Default : No
Forced : No

Text #1
ID : 4
Format : UTF-8
Codec ID : S_TEXT/UTF8
Codec ID/Info : UTF-8 Plain Text
Title : Русские
Language : Russian
Default : No
Forced : No

Text #2
ID : 5
Format : UTF-8
Codec ID : S_TEXT/UTF8
Codec ID/Info : UTF-8 Plain Text
Language : English
Default : No
Forced : No

Menu
00:00:00.000 : en:00:00:00.000
00:05:00.000 : en:00:05:00.000
00:10:00.000 : en:00:10:00.000
00:15:00.000 : en:00:15:00.000
00:20:00.000 : en:00:20:00.000
00:25:00.000 : en:00:25:00.000
00:30:00.000 : en:00:30:00.000
00:35:00.000 : en:00:35:00.000
00:40:00.000 : en:00:40:00.000
00:45:00.000 : en:00:45:00.000
00:50:00.000 : en:00:50:00.000
00:55:00.000 : en:00:55:00.000
01:00:00.000 : en:01:00:00.000
01:05:00.000 : en:01:05:00.000
01:10:00.000 : en:01:10:00.000
01:15:00.000 : en:01:15:00.000
01:20:00.000 : en:01:20:00.000
01:25:00.000 : en:01:25:00.000
01:30:00.000 : en:01:30:00.000
01:35:00.000 : en:01:35:00.000
01:40:00.000 : en:01:40:00.000
01:45:00.000 : en:01:45:00.000
01:50:00.000 : en:01:50:00.000
01:55:00.000 : en:01:55:00.000
02:00:00.000 : en:02:00:00.000
pb.wtf



Скачать В долине Эла через торрент http://i3.imageban.ru/out/2014/01/21/2c10472e33b509c422b83f41d7d57534.png Скачать фильм В долине Эла через торрент бесплантно в хорошем качестве Описание: Фильм повествует об офицере, чей сын-солдат немотивированно отправляется в самоволку вскоре после возвращения в Штаты из Ирака, и ... 10 10 8
Info! Золотая раздача, скачанное не засчитывается.
Торрент: Зарегистрирован [2014-01-21 16:06] · скачан: 156 раз
Статус: √ проверено
Размер: 5.69 GB
Как cкачать? Как скачать В долине Эла через торрент | qTorrent

% Раздел Тема Автор DL S | L
Фильмы 2006-2008 [ 2.18 GB ] В долине Эла / In the Valley of Elah [2007 HDRip DUB лицензия] lev1244v Скачать
1 | 0
Фильмы 2006-2008 [ 743 MB ] В долине Эла / In the Valley of Elah [2007 HDRip лицензия] brusovo Скачать
1 | 0

28-11-2019 20:33  

Отключить всю рекламу на сайте

21-01-2014 16:29 В долине Эла Скачать торрент  

отличный фильм pb.wtf



22-01-2014 18:16 В долине Эла Скачать торрент  

pb.wtf



    Дорогой пользователь! Огромная просьба, поблагодарите релизера, оцените раздачу и оставьте свои комментарий, если Вы скачали В долине Эла через торрент бесплатно! Внесите свою лепту в развитие PiratBit!
    Комментировать посты могут только пользователи прошедшие не сложную регистрацию
    Показать сообщения:    

    В долине Эла через торрент
    Скачать бесплатно В долине Эла
    В долине Эла скачать торрент
    В долине Эла смотреть онлайн
    Cкачать фильм В долине Эла бесплатно
    В долине Эла скачать торрент в хорошем качестве
    В долине Эла смотреть онлайн бесплатно в хорошем качестве


    Вы не можете начинать темы
    Вы не можете отвечать на сообщения
    Вы не можете редактировать свои сообщения
    Вы не можете удалять свои сообщения
    Вы не можете голосовать в опросах
    Вы не можете прикреплять файлы к сообщениям
    Вы можете скачивать файлы