Ссылка на приватное зеркало нашего сайта всего за 1$. Внимание количество ограничено!!!

2 сезон

iTunes

1 сезон

1

2 сезон

2 сезон

iTunes

1 сезон

RePack

30

Новинка

ВАЖНО

ИГРА 18+

pack

RePack

MK11
pack

Забери бонус

RePack

jed

!!Акция!!

Alien_Rage

RePack

fifa19

RePack

Assassins Creed: Odyssey

RePack

NEED FOR SPEED™ PAYBACK

4 сезон

9 сезон

Бесстыжие 9 сезон

Все сериалы

все сериалы на PB.wtf

RePack

FAR CRY 5
  

Хейвен / Тайны Хейвена / 4 сезон: 1-13 серии из 13 / Haven (Т.У. Пикок, Шоун Пиллер) [2013 г., Мистический триллер, криминальный детектив, ужасы, WEB-DL 720p, DVO (Кубик в Кубе)] pb.wtf

Хейвен через торрент pb.wtf

Размер: 18.91 GB | Добавлен: 6 лет 10 мес. назад | Торрент скачан:6 раз
Скачать  

22-01-2014 03:49 Хейвен Скачать торрент  

Хейвен (Тайны Хейвена) / Haven

Год выпуска: 2013
Страна: Канада
Выпущено: Big Motion Pictures, CanWest Global Television Network, Entertainment One
Жанр: Мистический триллер, криминальный детектив, ужасы,
Продолжительность: 13 x ~ 00:43:30
Перевод: Профессиональный двухголосый закадровый (Кубик в Кубе)
Озвучка: Кубик в Кубе
Работа со звуком: ЛП
При поддержке: HDOUT
Субтитры: English

Режиссер: Т.У. Пикок Ли Роуз Тим Соутэм Фред Гербер Роберт Либерман Рейчел Тэлалей Шоун Пиллер

В ролях: Эмили Роуз, Лукас Брайант, Эрик Бальфур, Ричард Донат, Джон Дансуорт, Николас Кэмпбелл, Адам Коуплэнд, Бри Уильямсон, Глен Лефчак, Кейт Келтон, Стивен МакХэтти, Кристофер Шор, Винесса Антуан, Морис Дин Винт

Описание: За основу взят сюжет из книги Стивена Кинга "The Colorado Kid" ("Дитя Колорадо"). В маленький город Хейвен приезжает агент ФБР Одри Паркер, чтобы расследовать смерть бывшего преступника. Из-за своего природного любопытства она попала в эпицентр этого необычного анклава, который, оказывается, издавна служил пристанищем для людей со сверхспособностями. Среди местных жителей города полицейский Натан Вурно, который стал напарником Одри, и загадочный и обаятельный мастер на все руки Дюк Крокер.

Доп. информация:
Награды:
Номинации:
Astra Awards, 2012 год
* Сериал фаворит (драма)
Directors Guild of Canada, 2012 год
* Лучший звук
Young Artist Awards, 2012 год
* Лучший молодой актер (Скотт Боуден)
2011 год
* Лучший молодой актер (Рикардо Хойос)

Качество: WEB-DL 720p
Формат: MKV
Видео кодек: AVC
Аудио кодек: AC-3
Видео: ~1280x720 (1.80:1), 23.976 fps,~4050 kbps avg
Аудио#1: 48 kHz, AC3 Dolby Digital, 3/2 (L,C,R,l,r) + LFE ch, ~384 kbps |Rus|
Аудио#2: 48 kHz, AC3 Dolby Digital, 3/2 (L,C,R,l,r) + LFE ch, ~384 kbps |Eng|
1.Fallout / Выпавший
2.Survivors / Выжившие
3.Bad Blood / Дурная кровь
4.Lost and Found / Потеря и находка
5.The New Girl / Новая девчонка
6.Countdown / Обратный отсчёт
7.Lay Me Down / Уложи меня
8.Crush / Давление
9.William / Уильям
10.The Trouble with Troubles / Проблема с проблемностями
11.Shot in the Dark / Догадка
12.When the Bough Breaks / Чем бы дитя ни тешилось
13.The Lighthouse / Маяк (Финал сезона)

General
Unique ID : 170984315764111745425652117730653515549 (0x80A261A1CBDE4282853EADCEAAFA2F1D)
Complete name : /etc/seedbox/home/kep/data/Haven Season 4 720p CasStudio.TV/Haven.s04e01.rus.eng.720p.CasStudio.TV.mkv
Format : Matroska
Format version : Version 4 / Version 2
File size : 1.42 GiB
Duration : 43mn 3s
Overall bit rate : 4 733 Kbps
Encoded date : UTC 2013-09-16 21:09:12
Writing application : mkvmerge v6.0.0 ('Coming Up For Air') built on Jan 20 2013 09:52:00
Writing library : libebml v1.3.0 + libmatroska v1.4.0

Video
ID : 1
Format : AVC
Format/Info : Advanced Video Codec
Format profile : High@L3.1
Format settings, CABAC : No
Format settings, ReFrames : 2 frames
Codec ID : V_MPEG4/ISO/AVC
Duration : 43mn 3s
Bit rate : 3 871 Kbps
Width : 1 280 pixels
Height : 720 pixels
Display aspect ratio : 16:9
Frame rate mode : Constant
Frame rate : 23.976 fps
Color space : YUV
Chroma subsampling : 4:2:0
Bit depth : 8 bits
Scan type : Progressive
Bits/(Pixel*Frame) : 0.175
Stream size : 1.16 GiB (82%)
Default : Yes
Forced : No
Color primaries : BT.709
Transfer characteristics : BT.709
Matrix coefficients : BT.709

Audio #1
ID : 2
Format : AC-3
Format/Info : Audio Coding 3
Mode extension : CM (complete main)
Format settings, Endianness : Big
Codec ID : A_AC3
Duration : 43mn 3s
Bit rate mode : Constant
Bit rate : 384 Kbps
Channel count : 6 channels
Channel positions : Front: L C R, Side: L R, LFE
Sampling rate : 48.0 KHz
Bit depth : 16 bits
Compression mode : Lossy
Stream size : 118 MiB (8%)
Language : Russian
Default : Yes
Forced : No

Audio #2
ID : 3
Format : AC-3
Format/Info : Audio Coding 3
Mode extension : CM (complete main)
Format settings, Endianness : Big
Codec ID : A_AC3
Duration : 43mn 3s
Bit rate mode : Constant
Bit rate : 384 Kbps
Channel count : 6 channels
Channel positions : Front: L C R, Side: L R, LFE
Sampling rate : 48.0 KHz
Bit depth : 16 bits
Compression mode : Lossy
Stream size : 118 MiB (8%)
Language : English
Default : No
Forced : No

Text
ID : 4
Format : UTF-8
Codec ID : S_TEXT/UTF8
Codec ID/Info : UTF-8 Plain Text
Language : English
Default : No
Forced : No
pb.wtf



Скачать Хейвен через торрент http://i6.imageban.ru/out/2013/12/27/46566fdd0c1afec6c75ca393e5534421.png Скачать фильм Хейвен через торрент бесплантно в хорошем качестве Описание: За основу взят сюжет из книги Стивена Кинга "The Colorado Kid" ("Дитя Колорадо"). В маленький город Хейвен приезжает агент ФБР ... 10 10 2
Info! Золотая раздача, скачанное не засчитывается.
Торрент: Зарегистрирован [2014-01-22 03:49] · скачан: 6 раз
Статус: √ проверено
Размер: 18.91 GB
Как cкачать? Как скачать Хейвен через торрент | qTorrent

% Раздел Тема Автор DL S | L
Зарубежные сериалы [ 7.39 GB ] Хейвен / Тайны Хейвена / 4 сезон: 1-13 серии из 13 / Haven [2013 Мистический ьный WEB-DLRip многоголосый] кэп Скачать
1 | 0

28-11-2019 20:33  

Отключить всю рекламу на сайте

26-09-2014 15:49 Хейвен Скачать торрент  

очень прошу встаньте кто нибудь на раздачу (((((( сериальчик очень понравился, но не могу скачать , нет скорости совсемpb.wtf



    Дорогой пользователь! Огромная просьба, поблагодарите релизера, оцените раздачу и оставьте свои комментарий, если Вы скачали Хейвен через торрент бесплатно! Внесите свою лепту в развитие PiratBit!
    Комментировать посты могут только пользователи прошедшие не сложную регистрацию
    Показать сообщения:    

    Хейвен через торрент
    Скачать бесплатно Хейвен
    Хейвен скачать торрент
    Хейвен смотреть онлайн
    Cкачать фильм Хейвен бесплатно
    Хейвен скачать торрент в хорошем качестве
    Хейвен смотреть онлайн бесплатно в хорошем качестве


    Вы не можете начинать темы
    Вы не можете отвечать на сообщения
    Вы не можете редактировать свои сообщения
    Вы не можете удалять свои сообщения
    Вы не можете голосовать в опросах
    Вы не можете прикреплять файлы к сообщениям
    Вы можете скачивать файлы