Ссылка на приватное зеркало нашего сайта всего за 1$. Внимание количество ограничено!!!

2 сезон

iTunes

1 сезон

1

iTunes

iTunes

iTunes

1 сезон

RePack

30

ИГРА 18+

pack

ВАЖНО

!!Акция!!

Alien_RageХит недели

RePack

MK11
pack

Забери бонус

RePack

jed

!!Акция!!

Alien_Rage

RePack

fifa19

RePack

Assassins Creed: Odyssey

RePack

NEED FOR SPEED™ PAYBACK

4 сезон

9 сезон

Бесстыжие 9 сезон

Все сериалы

все сериалы на PB.wtf

RePack

FAR CRY 5
  

Ёлки 3 (Ольга Харина, Дмитрий Киселёв, Александр Котт) [2013 г., комедия, BDRip-AVC, Лицензия] pb.wtf

Ёлки 3 через торрент pb.wtf

Размер: 1.47 GB | Добавлен: 6 лет 9 мес. назад | Торрент скачан:140 раз
Скачать  

22-01-2014 07:11 Ёлки 3 Скачать торрент  

Ёлки 3
Год выпуска: 2013
Страна: Россия
Жанр: комедия,
Продолжительность: 01:36:50
Тип релиза: Лицензия
Субтитры: Отсутствуют

Режиссер: Ольга Харина Дмитрий Киселёв Александр Котт
Продюссер: Тимур Бекмамбетов, Ива Стромилова, Ольга Харина
Сценарий: Ольга Харина, Анна Матисон, Ксения Мчелидзе

Бюджет: 26 декабря 2013



В ролях: Иван Ургант, Сергей Светлаков, Гоша Куценко, Валентин Гафт, Татьяна Догилева, Пётр Фёдоров, Анна Чиповская, Мария Шукшина, Константин Хабенский, Антон Богданов,

Описание: Спустя два года они снова с нами: любимые герои «Ёлок» в самых невероятных новогодних историях. Боря и Женя, чьи годовалые дети в канун праздника доведут друзей до психушки. Маленькая девочка Настя, чьи родители разлучат ее влюбленных друг в друга собак. Лыжник и сноубордист в самой экстремальной в их жизни гонке — от военкома. И профессор из Екатеринбурга Андрей, чья любвеобильность вновь не доведет его до добра, а только до проруби в минус 30.
Под бой курантов этих и новых героев «Ёлок» объединит бумеранг добра. Завершая свой круг, он заслуженно вернётся к каждому, кто его однажды запустил — кому улыбками и объятиями любимых и друзей, кому — праздничным настроением и соответствующим градусу состоянием, а кому-то… телефоном в холодце!

Качество: BDRip-AVC
Формат: MKV
Видео кодек: H.264
Аудио кодек: AC3
Видео: 1024x432, 24,000 fps, 1729 Кбит/сек
Аудио#1: 48 kHz, AC3 Dolby Digital, 3/2 (L,C,R,l,r) + LFE ch, ~448 kbps
Релиз от: R. G. Jolly Roger





Общее
Уникальный идентификатор : 230126506356650949995872861018436817234 (0xAD20C0C1EAEEBFF48264F19A89025152)
Полное имя : D:Elki.3.2013.O.BDRip-AVC.1.46Gb_JRG.mkv
Формат : Matroska
Версия формата : Version 4 / Version 2
Размер файла : 1,47 Гбайт
Продолжительность : 1 ч. 36 м.
Общий поток : 2179 Кбит/сек
Название фильма : The Jolly Roger Release Group
Дата кодирования : UTC 2014-01-22 06:01:27
Программа кодирования : mkvmerge v6.2.0 ('Promised Land') built on Apr 28 2013 12:22:01
Библиотека кодирования : libebml v1.3.0 + libmatroska v1.4.0

Видео
Идентификатор : 1
Формат : AVC
Формат/Информация : Advanced Video Codec
Профиль формата : High@L4.1
Параметр CABAC формата : Да
Параметр ReFrames формата : 7 кадров
Идентификатор кодека : V_MPEG4/ISO/AVC
Продолжительность : 1 ч. 36 м.
Битрейт : 1729 Кбит/сек
Ширина : 1024 пикселя
Высота : 432 пикселя
Соотношение сторон : 2,40:1
Режим частоты кадров : Постоянный
Частота кадров : 24,000 кадра/сек
Цветовое пространство : YUV
Субдискретизация насыщенности : 4:2:0
Битовая глубина : 8 бит
Тип развёртки : Прогрессивная
Бит/(Пиксели*Кадры) : 0.163
Размер потока : 1,14 Гбайт (77%)
Библиотека кодирования : x264 core 130 r2273 b3065e6
Настройки программы : cabac=1 / ref=7 / deblock=1:-1:-1 / analyse=0x3:0x133 / me=umh / subme=10 / psy=1 / psy_rd=1.00:0.15 / mixed_ref=0 / me_range=24 / chroma_me=1 / trellis=2 / 8x8dct=1 / cqm=0 / deadzone=21,11 / fast_pskip=0 / chroma_qp_offset=-3 / threads=3 / lookahead_threads=1 / sliced_threads=0 / nr=0 / decimate=1 / interlaced=0 / bluray_compat=0 / constrained_intra=0 / bframes=7 / b_pyramid=2 / b_adapt=2 / b_bias=0 / direct=3 / weightb=1 / open_gop=0 / weightp=2 / keyint=250 / keyint_min=23 / scenecut=40 / intra_refresh=0 / rc_lookahead=50 / rc=2pass / mbtree=1 / bitrate=1729 / ratetol=1.0 / qcomp=0.60 / qpmin=0 / qpmax=69 / qpstep=4 / cplxblur=20.0 / qblur=0.5 / ip_ratio=1.40 / aq=1:1.00
Язык : Russian
Default : Да
Forced : Нет

Аудио
Идентификатор : 2
Формат : AC-3
Формат/Информация : Audio Coding 3
Расширение режима : CM (complete main)
Параметр Endianness формата : Big
Идентификатор кодека : A_AC3
Продолжительность : 1 ч. 36 м.
Вид битрейта : Постоянный
Битрейт : 448 Кбит/сек
Каналы : 6 каналов
Расположение каналов : Front: L C R, Side: L R, LFE
Частота : 48,0 КГц
Битовая глубина : 16 бит
Метод сжатия : С потерями
Размер потока : 310 Мбайт (21%)
Язык : Russian
Default : Да
Forced : Нет

pb.wtf



Скачать Ёлки 3 через торрент http://i1.imageban.ru/out/2013/12/30/2b0a8ee3ecd16c9e2f2dd0358aeb21da.png Скачать фильм Ёлки 3 через торрент бесплантно в хорошем качестве Описание: Спустя два года они снова с нами: любимые герои «Ёлок» в самых невероятных новогодних историях. Боря и Женя, чьи годовалые дети в ... 10 10 6
Info! Золотая раздача, скачанное не засчитывается.
Торрент: Зарегистрирован [2014-01-22 07:11] · скачан: 140 раз
Статус: √ проверено
Размер: 1.47 GB
Как cкачать? Как скачать Ёлки 3 через торрент | qTorrent

% Раздел Тема Автор DL S | L
Другие симуляторы [ 723 MB ] Русская рыбалка Installsoft Edition [ Rus Симулятор рыбалки] ЗлостныйПират Скачать
1 | 0
TNT serials [ 11.91 GB ] Родители / Сезон: 3 / Серии: 1-16 из 20 [2020 WEBRip 1080p] bober100 Скачать
1 | 0
TNT serials [ 5.28 GB ] Родители / Сезон: 3 / Серии: 1-18 из 20 [2020 WEBRip] bober100 Скачать
1 | 1
Детективы, Боевики, Триллеры [ 480 MB ] Мастер Чэнь - Шпион из Калькутты 3. Амалия и Золотой век [Абалкина Мария 2019 96 kbps MP3] bober100 Скачать
2 | 0
Наши сериалы [ 44.32 GB ] Маргоша 3 / Серии 1-90 из 90 [2010 драмеди IPTVRip] shk0der Скачать
1 | 0
Фантастика [ 1.15 GB ] Смородинский Георгий - Семнадцатое обновление 3. Стальные Волки Крейда [Геннадий Коршунов 2016 192 kbps MP3] bober100 Скачать
1 | 0
Детективы, Боевики, Триллеры [ 432 MB ] Алан Брэдли - Загадки Флавии де Люс 3. Копченая селедка без горчицы [Мария Абалкина 2017 96 kbps MP3] bober100 Скачать
1 | 0

28-11-2019 20:33  

Отключить всю рекламу на сайте

    Дорогой пользователь! Огромная просьба, поблагодарите релизера, оцените раздачу и оставьте свои комментарий, если Вы скачали Ёлки 3 через торрент бесплатно! Внесите свою лепту в развитие PiratBit!
    Комментировать посты могут только пользователи прошедшие не сложную регистрацию
    Показать сообщения:    

    Ёлки 3 через торрент
    Скачать бесплатно Ёлки 3
    Ёлки 3 скачать торрент
    Ёлки 3 смотреть онлайн
    Cкачать фильм Ёлки 3 бесплатно
    Ёлки 3 скачать торрент в хорошем качестве
    Ёлки 3 смотреть онлайн бесплатно в хорошем качестве


    Вы не можете начинать темы
    Вы не можете отвечать на сообщения
    Вы не можете редактировать свои сообщения
    Вы не можете удалять свои сообщения
    Вы не можете голосовать в опросах
    Вы не можете прикреплять файлы к сообщениям
    Вы можете скачивать файлы