Ссылка на приватное зеркало всего за 1$. Внимание количество ограничено!!!

iTunes

iTunes

iTunes

1

iTunes

iTunes

iTunes

iTunes

iTunes

30
pack

$ от Little Big

ВАЖНО

!!Акция!!

Alien_RageХит недели

RePack

Resident Evil 21

ИГРА 18+

pack

RePack

jed

!!Акция!!

Alien_Rage

RePack

fifa19

RePack

Assassins Creed: Odyssey

RePack

NEED FOR SPEED™ PAYBACK

4 сезон

9 сезон

Бесстыжие 9 сезон

Все сериалы

все сериалы на PB.wtf

RePack

FAR CRY 5
  

Сезон: убийц / Killing Season (Марк Стивен Джонсон / Mark Steven Johnson) [ 2013 , Бельгия, США , боевик, триллер , WEB-DL 720p ] VO [den904]+Оригинал pb.wtf

Сезон: убийц через торрент pb.wtf

Размер: 2.81 GB | Добавлен: 6 лет 11 мес. назад | Торрент скачан:712 раз
Скачать  

16-07-2013 11:10 Сезон: убийц Скачать торрент  

Сезон убийц / Killing Season

«The purest form of war is one on one.»



  • Год выпуска:2013
  • Страна: Бельгия, США
  • Жанр:боевик, триллер
  • Продолжительность: 01:30:44
  • Перевод:Любительский (одноголосый)[den904]

  • Субтитры: English
    • Режиссер: Марк Стивен Джонсон / Mark Steven Johnson
    • Продюсер:Пол Брюлс / Paul Breuls, Энтони Рулен / Anthony Rhulen, Джон Томпсон / John Thompson, Эд Кэйтелл III / Ed Cathell III, Гай Таннахилл / Guy Tannahill
    • Сценарий:Ивэн Догерти / Evan Daugherty

  • В ролях:Джон Траволта (Emil Kovac), Роберт Де Ниро (Benjamin Ford), Майло Вентимилья (Chris Ford), Элизабет Олин (Sarah Ford), Диана Любенова (Elena), Kalin Sarmenov (Serbian), Стефан Штерев (Bar Customer)
    • Описание:
      История о ветеранах войны в Боснии - американце и сербе, которые, спустя много лет после событий в Европе, устраивают свою личную Третью мировую войну, пытаясь свести счеты.

  • Рейтинг
    kinopoisk.ru: 5.905 (62)
    imdb.com: 6.50 (166)
    MPAA: R - Лицам до 17 лет обязательно присутствие взрослого
    • Качество:WEB-DL 720p
    • Формат: MKV
    • Видео кодек:AVC
    • Аудио кодек: AC3
    • Видео: AVC, 1280x532 (2.40:1), 3577 kbps, 23,976 fps, 0,219 bpp
    • Аудио №1: русский / AC3 / 5.1 / 48 kHz / 384 kbps / 16 bit ||
      Аудио №2: английский / AC3 / 5.1 / 48 kHz / 384 kbps / 16 bit

    General
    Unique ID : 222888558327930246956722459011131548245 (0xA7AEC65E2CF6945CA2BC87E45476A255)
    Complete name : D:ТорентыSezon.ubistv.2013.L1.720p.mkv
    Format : Matroska
    Format version : Version 2
    File size : 2.81 GiB
    Duration : 1h 30mn
    Overall bit rate : 4 434 Kbps
    Encoded date : UTC 2013-07-15 20:20:14
    Writing application : mkvmerge v5.0.1 ('Es ist Sommer') built on Oct 9 2011 11:55:43
    Writing library : libebml v1.2.2 + libmatroska v1.3.0

    Video
    ID : 1
    Format : AVC
    Format/Info : Advanced Video Codec
    Format profile : Main@L3.1
    Format settings, CABAC : No
    Format settings, ReFrames : 2 frames
    Muxing mode : Header stripping
    Codec ID : V_MPEG4/ISO/AVC
    Duration : 1h 30mn
    Bit rate : 3 578 Kbps
    Width : 1 280 pixels
    Height : 532 pixels
    Display aspect ratio : 2.40:1
    Frame rate : 23.976 fps
    Color space : YUV
    Chroma subsampling : 4:2:0
    Bit depth : 8 bits
    Scan type : Progressive
    Bits/(Pixel*Frame) : 0.219
    Stream size : 2.27 GiB (81%)
    Language : English
    Default : Yes
    Forced : No
    Color primaries : BT.709-5, BT.1361, IEC 61966-2-4, SMPTE RP177
    Transfer characteristics : BT.709-5, BT.1361
    Matrix coefficients : BT.709-5, BT.1361, IEC 61966-2-4 709, SMPTE RP177

    Audio #1
    ID : 2
    Format : AC-3
    Format/Info : Audio Coding 3
    Mode extension : CM (complete main)
    Muxing mode : Header stripping
    Codec ID : A_AC3
    Duration : 1h 30mn
    Bit rate mode : Constant
    Bit rate : 384 Kbps
    Channel(s) : 6 channels
    Channel positions : Front: L C R, Side: L R, LFE
    Sampling rate : 48.0 KHz
    Bit depth : 16 bits
    Compression mode : Lossy
    Stream size : 249 MiB (9%)
    Language : Russian
    Default : No
    Forced : No

    Audio #2
    ID : 3
    Format : AC-3
    Format/Info : Audio Coding 3
    Mode extension : CM (complete main)
    Muxing mode : Header stripping
    Codec ID : A_AC3
    Duration : 1h 30mn
    Bit rate mode : Constant
    Bit rate : 384 Kbps
    Channel(s) : 6 channels
    Channel positions : Front: L C R, Side: L R, LFE
    Sampling rate : 48.0 KHz
    Bit depth : 16 bits
    Compression mode : Lossy
    Stream size : 249 MiB (9%)
    Language : English
    Default : Yes
    Forced : No

    Text
    ID : 4
    Format : UTF-8
    Codec ID : S_TEXT/UTF8
    Codec ID/Info : UTF-8 Plain Text
    Language : English
    Default : No
    Forced : No

    Menu
    00:00:00.000 : en:1.
    00:10:00.000 : en:2.
    00:20:00.000 : en:3.
    00:30:00.000 : en:4.
    00:40:00.000 : en:5.
    00:50:00.000 : en:6.
    01:00:00.000 : en:7.
    01:10:00.000 : en:8.
    01:20:00.000 : en:9.
    Сценарий: Ивэн Догерти / Evan Daugherty
    Продюсер: Пол Брюлс / Paul Breuls, Энтони Рулен / Anthony Rhulen, Джон Томпсон / John Thompson, Эд Кэйтелл III / Ed Cathell III, Гай Таннахилл / Guy Tannahill
    Оператор: Питер Мензиес мл. / Peter Menzies Jr.
    Композитор: Кристофер Янг / Christopher Young

    Сборы в США: $27 713

    Мировая премьера: 29 июня 2013


    © Оформление by Vetalpb.wtf



  • Скачать Сезон: убийц через торрент http://i4.imageban.ru/out/2013/07/16/856f1d7c615dd36ee4d90a20a509b2d8.png Скачать фильм Сезон: убийц через торрент бесплантно в хорошем качестве Описание:История о ветеранах войны в Боснии - американце и сербе, которые, спустя много лет после событий в Европе, устраивают свою личную ... 9.8 10 24
    Info! Золотая раздача, скачанное не засчитывается.
    Торрент: Зарегистрирован [2013-07-16 11:10] · скачан: 712 раз
    Статус: √ проверено
    Размер: 2.81 GB
    Как cкачать? Как скачать Сезон: убийц через торрент | qTorrent

    28-11-2019 20:33  

    Отключить всю рекламу на сайте

    16-07-2013 15:51 Сезон: убийц Скачать торрент  

    Фильм-класс.Понравился.pb.wtf



    16-07-2013 16:10 Сезон: убийц Скачать торрент  

    у меня нет перевода pb.wtf



    16-07-2013 16:41 Сезон: убийц Скачать торрент  

    DAVINCHI
    VLC media playerpb.wtf



    16-07-2013 17:08 Сезон: убийц Скачать торрент  

    Vetаl
    а случайно не Сезон убийств?pb.wtf



    16-07-2013 19:24 Сезон: убийц Скачать торрент  

    На что похож?pb.wtf



    16-07-2013 20:12 Сезон: убийц Скачать торрент  

    27-12-2013 19:16 Сезон: убийц Скачать торрент  

    А перевод засунуть не судьба видимо !!! Упырь !!! Перезалейте нах.
    Сколько можно терпеть беспредел !!pb.wtf



      Дорогой пользователь! Огромная просьба, поблагодарите релизера, оцените раздачу и оставьте свои комментарий, если Вы скачали Сезон: убийц через торрент бесплатно! Внесите свою лепту в развитие PiratBit!
      Комментировать посты могут только пользователи прошедшие не сложную регистрацию
      Показать сообщения:    

      Сезон: убийц через торрент
      Скачать бесплатно Сезон: убийц
      Сезон: убийц скачать торрент
      Сезон: убийц смотреть онлайн
      Cкачать фильм Сезон: убийц бесплатно
      Сезон: убийц скачать торрент в хорошем качестве
      Сезон: убийц смотреть онлайн бесплатно в хорошем качестве


      Вы не можете начинать темы
      Вы не можете отвечать на сообщения
      Вы не можете редактировать свои сообщения
      Вы не можете удалять свои сообщения
      Вы не можете голосовать в опросах
      Вы не можете прикреплять файлы к сообщениям
      Вы можете скачивать файлы