2 сезон

iTunes

MVO

1

2 сезон

iTunes

iTunes

1 сезон

RePack

30

Ultimate

ВАЖНО

ИГРА 18+

pack

RePack

MK11
pack

Легкие деньги

RePack

jed

RePack

fifa19

RePack

RDR2

RePack

NEED FOR SPEED™ PAYBACK

4 сезон

9 сезон

Бесстыжие 9 сезон

Все сериалы

все сериалы на PB.wtf

RePack

FAR CRY 5

Anonymous, доброе утро, мы не успеваем собрать деньги на оплату серверов за декабрь и январь, помогите нам пожалуйста в это трудное время. В качестве благодарности мы отключим Вам всю рекламу на сайте (укажите свой ник в строку Ваше имя)!

×
  
Magnet ссылка

Сезон: убийц / Killing Season (Марк Стивен Джонсон) [2013 г., триллер, драма, боевик, HDRip, Лицензия] pb.wtf

Сезон: убийц через торрент pb.wtf

Размер: 1.37 GB | Добавлен: 7 лет назад | Торрент скачан:1448 раз
Скачать  

20-01-2014 14:14 Сезон: убийц Скачать торрент  

Сезон убийц / Killing SeasonГод выпуска: 2013
Страна: США, Бельгия
Жанр: триллер, драма, боевик

Продолжительность: 01:30:44
Перевод: Профессиональный (многоголосый, закадровый) [лицензия]
Субтитры: Нет
Режиссер: Марк Стивен Джонсон / Mark Steven Johnson
В ролях: Джон Траволта (Emil Kovac), Роберт Де Ниро (Benjamin Ford), Майло Вентимилья (Chris Ford), Элизабет Олин (Sarah Ford), Диана Любенова (Elena), Калин Сарменов (Serbian), Стефан Штерев (Bar Customer)
Описание:
История о ветеранах войны в Боснии - американце и сербе, которые, спустя много лет после событий в Европе, устраивают свою личную Третью мировую войну, пытаясь свести счеты.
Рейтинг
kinopoisk.ru: 6.014 (2885)
imdb.com: 5.40 (15 584)
MPAA: R - Лицам до 17 лет обязательно присутствие взрослого
Качество: HDRip
Формат: AVI
Видео кодек: XviD
Аудио кодек: AC3
Видео: XviD, 720x400 (16:9), 1698 kbps, 23,976 fps, 0,246 bpp
Аудио: AC3 / 5.1 / 48 kHz / 448 kbps / 16 bit
General
Complete name : M:Sezon.Ubiyc.2013.P.HDRip.1400MB.avi
Format : AVI
Format/Info : Audio Video Interleave
File size : 1.37 GiB
Duration : 1h 30mn
Overall bit rate : 2 156 Kbps
Writing application : VirtualDubMod 1.5.10.2 (build 2540/release)
Writing library : VirtualDubMod build 2540/release
Video #0
ID : 0
Format : MPEG-4 Visual
Format profile : Advanced Simple@L5
Format settings, BVOP : 2
Format settings, QPel : No
Format settings, GMC : No warppoints
Format settings, Matrix : Custom
Codec ID : XVID
Codec ID/Hint : XviD
Duration : 1h 30mn
Bit rate : 1 699 Kbps
Width : 720 pixels
Height : 400 pixels
Display aspect ratio : 16:9
Frame rate : 23.976 fps
Color space : YUV
Chroma subsampling : 4:2:0
Bit depth : 8 bits
Scan type : Progressive
Compression mode : Lossy
Bits/(Pixel*Frame) : 0.246
Stream size : 1.08 GiB (79%)
Writing library : XviD 1.2.1 (UTC 2008-12-04)
Audio #1
ID : 1
Format : AC-3
Format/Info : Audio Coding 3
Mode extension : CM (complete main)
Format settings, Endianness : Big
Codec ID : 2000
Duration : 1h 30mn
Bit rate mode : Constant
Bit rate : 448 Kbps
Channel count : 6 channels
Channel positions : Front: L C R, Side: L R, LFE
Sampling rate : 48.0 KHz
Bit depth : 16 bits
Compression mode : Lossy
Stream size : 291 MiB (21%)
Alignment : Split accross interleaves
Interleave, duration : 42 ms (1.00 video frame)
Interleave, preload duration : 500 ms



pb.wtf



Скачать Сезон: убийц через торрент http://pic.kartinco.top/images/6/9d76p.jpg Скачать фильм Сезон: убийц через торрент бесплантно в хорошем качестве Описание: История о ветеранах войны в Боснии - американце и сербе, которые, спустя много лет после событий в Европе, устраивают свою личную ... 9.1 10 48
Info! Золотая раздача, скачанное не засчитывается.
Торрент: Зарегистрирован [2014-01-22 11:48] · скачан: 1 448 раз
Статус: √ проверено
Размер: 1.37 GB
Как cкачать? Как скачать Сезон: убийц через торрент | UTorrent

% Раздел Тема Автор DL S | L
Фильмы (DVD фильмы) [ 3.4 GB ] Сезон: убийц / Killing Season [2013 DVD5] R5 voovaz Скачать
1 | 0
Фильмы (Blu-ray, BD-Remux, HDDVD) [ 18.58 GB ] Сезон: убийц / Killing Season [2013 Blu-ray многоголосый ] Pavlin Скачать
1 | 0
Фильмы 2013 [DVDrip, WEB-DLRip, HDrip] [ 1.46 GB ] Сезон: убийц / Killing Season [2013 BDRip-AVC] MVO + Original + Sub [] potroks Скачать
1 | 0
Фильмы (WEB-DL 720p, 1080p) [ 2.81 GB ] Сезон: убийц / Killing Season [ 2013 Бельгия WEB-DL 720p ] VO [den904]+Оригинал Ворон Скачать
1 | 0

28-11-2019 20:33  

Отключить всю рекламу на сайте

21-01-2014 07:28 Сезон: убийц Скачать торрент  

Ни фига себе от куда это чудо. Траволта, Дениро.pb.wtf



21-01-2014 20:26 Сезон: убийц Скачать торрент  

фильм супер!!! всем смотреть!!! хорошее качество и озвучка!!! pb.wtf



22-01-2014 08:57 Сезон: убийц Скачать торрент  

kinopoisk.ru: 6.014
не думаюpb.wtf



22-01-2014 21:02 Сезон: убийц Скачать торрент  

Понравилсяpb.wtf



24-01-2014 12:44 Сезон: убийц Скачать торрент  

америкосы самые лучшие в мире ...тфффуу типичная пропогандаpb.wtf



    Дорогой пользователь! Огромная просьба, поблагодарите релизера, оцените раздачу и оставьте свои комментарий, если Вы скачали Сезон: убийц через торрент бесплатно! Внесите свою лепту в развитие PiratBit!
    Комментировать посты могут только пользователи прошедшие не сложную регистрацию
    Показать сообщения:    

    Сезон: убийц через торрент
    Скачать бесплатно Сезон: убийц
    Сезон: убийц скачать торрент
    Сезон: убийц смотреть онлайн
    Cкачать фильм Сезон: убийц бесплатно
    Сезон: убийц скачать торрент в хорошем качестве
    Сезон: убийц смотреть онлайн бесплатно в хорошем качестве


    Вы не можете начинать темы
    Вы не можете отвечать на сообщения
    Вы не можете редактировать свои сообщения
    Вы не можете удалять свои сообщения
    Вы не можете голосовать в опросах
    Вы не можете прикреплять файлы к сообщениям
    Вы можете скачивать файлы