Ссылка на приватное зеркало нашего сайта всего за 1$. Внимание количество ограничено!!!

2 сезон

iTunes

1 сезон

1

iTunes

iTunes

iTunes

1 сезон

RePack

30

ИГРА 18+

pack

ВАЖНО

!!Акция!!

Alien_RageХит недели

RePack

MK11
pack

Забери бонус

RePack

jed

!!Акция!!

Alien_Rage

RePack

fifa19

RePack

Assassins Creed: Odyssey

RePack

NEED FOR SPEED™ PAYBACK

4 сезон

9 сезон

Бесстыжие 9 сезон

Все сериалы

все сериалы на PB.wtf

RePack

FAR CRY 5
  

От винта! Полный улет (Ольга Лопато) [2012 г., мультфильм, комедия, приключения, BDRip,Лицензия] pb.wtf

От винта! Полный улет через торрент pb.wtf

Размер: 2.05 GB | Добавлен: 6 лет 9 мес. назад | Торрент скачан:228 раз
Скачать  

22-01-2014 17:41 От винта! Полный улет Скачать торрент  

От винта! Полный улет
Год выпуска: 2012
Страна: Россия / Simka Entertainment, Grindstone Entertainment Group
Жанр: мультфильм, комедия, приключения,
Продолжительность: 01:26:58
Тип релиза: Лицензия

Режиссер: Ольга Лопато



В ролях: Алексей Франдетти, Антонина Березка, Валентин Гафт, Александр Головин, Андрей Мерзликин, Анфиса Чехова, Александр Семчев, Александр Леньков, Александр Ильин, Виктор Власов,

Описание: За несколько недель до грандиозного авиашоу юный истребитель СУ-27 по имени Витязь поступает в ученики к самолетам-корифеям, которые берутся подготовить его к соревнованию. Но Витязь забывает о занятиях, когда по уши влюбляется в очаровательный легкий самолет Молнию, не подозревая, что она – помощница жестокого и злого истребителя Грома, который мечтает расправиться с Витязем. Сможет ли Витязь завоевать любовь Молнии? Успеет ли разрушить коварные планы Грома? И главное – станет ли Витязь победителем авиашоу?

Качество: BDRip (Рип с Blu-ray 1080p AVC DTS-HD 5.1)
Формат: AVI
Видео кодек: XviD
Аудио кодек: AC3
Видео: 720x304 (2.37:1), 23.976 fps, XviD build 50 ~2926 kbps avg, 0.56 bit/pixel
Аудио: 48 kHz, AC3 Dolby Digital, 3/2 (L,C,R,l,r) + LFE ch, ~448 kbps


Общее
Полное имя : G:киноОт винта! Полный улет.2012.BDRip.avi
Формат : AVI
Формат/Информация : Audio Video Interleave
Профиль формата : OpenDML
Размер файла : 2,05 Гбайт
Продолжительность : 1 ч. 26 м.
Общий поток : 3381 Кбит/сек
Название фильма : От винта! Полный улет.2012.BDRip.avi
Режиссёр : Rip by coc900
Программа кодирования : VirtualDubMod 1.5.10.3 | www.virtualdub-fr.org || (build 2550/release)

Видео
Идентификатор : 0
Формат : MPEG-4 Visual
Профиль формата : Advanced Simple@L5
Параметр BVOP формата : 2
Параметр QPel формата : Нет
Параметр GMC формата : Без точки перехода
Параметр матрицы формата : Default (H.263)
Идентификатор кодека : XVID
Идентификатор кодека/Подсказка : XviD
Продолжительность : 1 ч. 26 м.
Битрейт : 2921 Кбит/сек
Ширина : 720 пикс.
Высота : 304 пикс.
Соотношение сторон : 2,35:1
Частота кадров : 23,976 кадр/сек
Цветовое пространство : YUV
Подвыборка цветности : 4:2:0
Битовая глубина : 8 бит
Тип развёртки : Прогрессивная
Метод сжатия : С потерями
Бит/(Пиксели*Кадры) : 0.557
Размер потока : 1,77 Гбайт (86%)
Библиотека кодирования : XviD 1.2.1 (UTC 2008-12-04)

Аудио
Идентификатор : 1
Формат : AC-3
Формат/Информация : Audio Coding 3
Расширение режима : CM (complete main)
Идентификатор кодека : 2000
Продолжительность : 1 ч. 26 м.
Вид битрейта : Постоянный
Битрейт : 448 Кбит/сек
Канал(ы) : 6 канала(ов)
Расположение каналов : Front: L C R, Side: L R, LFE
Частота : 48,0 КГц
Битовая глубина : 16 бит
Метод сжатия : С потерями
Размер потока : 279 Мбайт (13%)
Выравнивание : Разделение по промежуткам
Продолжительность промежутка : 42 мс. (1,00 видеокадр)
Время предзагрузки промежутка : 500 ms

pb.wtf



Скачать От винта! Полный улет через торрент http://pic.kartinco.top/images/6/vltlh.jpg Скачать фильм От винта! Полный улет через торрент бесплантно в хорошем качестве Описание: За несколько недель до грандиозного авиашоу юный истребитель СУ-27 по имени Витязь поступает в ученики к самолетам-корифеям, ... 8.6 10 13
Info! Золотая раздача, скачанное не засчитывается.
Торрент: Зарегистрирован [2014-01-22 17:41] · скачан: 228 раз
Статус: √ проверено
Размер: 2.05 GB
Как cкачать? Как скачать От винта! Полный улет через торрент | qTorrent

28-11-2019 20:33  

Отключить всю рекламу на сайте

23-01-2014 10:16 От винта! Полный улет Скачать торрент  

Почему-то меня хватило только на 20 мин. просмотра этого "шедевра"....
Мультфильм ни о чём!pb.wtf



23-01-2014 23:15 От винта! Полный улет Скачать торрент  

Помню как-то смотрел на работе краем глаза. Мультфильм для детей дошкольного возраста, взрослым будет не интересно - факт. Просто взрослый, в отличие от ребенка, увидит все аляповатости этого отечественного клона "Тачек", да и в целом мультфильм скучноват.pb.wtf



    Дорогой пользователь! Огромная просьба, поблагодарите релизера, оцените раздачу и оставьте свои комментарий, если Вы скачали От винта! Полный улет через торрент бесплатно! Внесите свою лепту в развитие PiratBit!
    Комментировать посты могут только пользователи прошедшие не сложную регистрацию
    Показать сообщения:    

    От винта! Полный улет через торрент
    Скачать бесплатно От винта! Полный улет
    От винта! Полный улет скачать торрент
    От винта! Полный улет смотреть онлайн
    Cкачать фильм От винта! Полный улет бесплатно
    От винта! Полный улет скачать торрент в хорошем качестве
    От винта! Полный улет смотреть онлайн бесплатно в хорошем качестве


    Вы не можете начинать темы
    Вы не можете отвечать на сообщения
    Вы не можете редактировать свои сообщения
    Вы не можете удалять свои сообщения
    Вы не можете голосовать в опросах
    Вы не можете прикреплять файлы к сообщениям
    Вы можете скачивать файлы