2 сезон

iTunes

MVO

1

2 сезон

iTunes

iTunes

1 сезон

RePack

30

Новинка

ВАЖНО

ИГРА 18+

pack

RePack

MK11
pack

Легкие деньги

RePack

jed

RePack

fifa19

RePack

RDR2

RePack

NEED FOR SPEED™ PAYBACK

4 сезон

9 сезон

Бесстыжие 9 сезон

Все сериалы

все сериалы на PB.wtf

RePack

FAR CRY 5

Anonymous, доброй ночи, мы не успеваем собрать деньги на оплату серверов за декабрь и январь, помогите нам пожалуйста в это трудное время. В качестве благодарности мы отключим Вам всю рекламу на сайте (укажите свой ник в строку Ваше имя)!

×
  
Magnet ссылка

Короли танцпола / Battle of the Year (Бенсон Ли / Benson Lee) [2013, США, музыка, HDRip,Профессиональный (Дубляж - iTunes/Russia) pb.wtf

Короли танцпола через торрент pb.wtf

Размер: 1.37 GB | Добавлен: 7 лет назад | Торрент скачан:1091 раз
Скачать  

23-01-2014 08:40 Короли танцпола Скачать торрент  


Короли танцпола / Battle of the Year

«Весь мир у их ног»

  • Год выпуска:2013
  • Страна:США
  • Жанр:музыка

  • Продолжительность:01:49:40
  • Перевод:Профессиональный (Дубляж - iTunes/Russia)

  • Субтитры: Нет
    • Режиссер:Бенсон Ли / Benson Lee
    • Сценарий: Брин Хилл / Brin Hill, Крис Паркер / Chris Parker, Бенсон Ли / Benson Lee
    • Продюсер: Бо Флинн / Beau Flynn, Гленн С. Гейнор / Glenn S. Gainor, Эми Ло / Amy Lo, Уильям Пэкер / William Packer, Трип Винсон / Tripp Vinson

  • В ролях:Джош Холлоуэй (Jason Blake), Лас Алонсо (Dante Graham), Джош Пек (Franklyn), Кейти Лотц (Stacy), Крис Браун (Rooster), Иван «Флипз» Велез (Flipz), Джон «Ду Нок» Крус (Do Knock), Джесси «Каспер» Браун (Rebel), Дэвид Шрейбман (Kid), Саванди Уилсон (Sniper), Ричард Магвайр (Lil Adonis), Стив Терада (Sight)

    • Описание:
      Фильм расскажет про подготовку би-боев, которые в конце года сразятся на финальном соревновании. Главные герои после поражения имеют не так много времени, чтобы подготовиться к встрече с лучшими би-боями мира, которые доминируют на играх уже 10 лет...

    Мировая премьера:19 сентября 2013 Бюджет:$20 000 000
    • Качество:HDRip
    • Формат:AVI
    • Видео кодек: XviD
    • Аудио кодек:AC3
    • Видео: XviD, 720x384 (1.875), 1391 kbps, 23,976 fps,
    • Аудио: AC3 / 2.0 / 48 kHz / 384 kbps / 16 bit


    Код:

    Общее
    Полное имя                               : D:ТорентыBa77le.0f.the.Ye4r.2013.D.HDRip.1400Mb.avi
    Формат                                   : AVI
    Формат/Информация                        : Audio Video Interleave
    Размер файла                             : 1,37 Гбайт
    Продолжительность                        : 1 ч. 49 м.
    Общий поток                              : 1784 Кбит/сек
    Программа кодирования                    : VirtualDubMod 1.5.10.2 (build 2540/release)
    Библиотека кодирования                   : VirtualDubMod build 2540/release

    Видео
    Идентификатор                            : 0
    Формат                                   : MPEG-4 Visual
    Профиль формата                          : Advanced Simple@L5
    Параметр BVOP формата                    : 2
    Параметр QPel формата                    : Нет
    Параметр GMC формата                     : Без точки перехода
    Параметр матрицы формата                 : Выборочная
    Идентификатор кодека                     : XVID
    Идентификатор кодека/Подсказка           : XviD
    Продолжительность                        : 1 ч. 49 м.
    Битрейт                                  : 1391 Кбит/сек
    Ширина                                   : 720 пикселей
    Высота                                   : 384 пикселя
    Соотношение сторон                       : 1,85:1
    Частота кадров                           : 23,976 кадра/сек
    Цветовое пространство                    : YUV
    Субдискретизация насыщенности            : 4:2:0
    Битовая глубина                          : 8 бит
    Тип развёртки                            : Прогрессивная
    Метод сжатия                             : С потерями
    Бит/(Пиксели*Кадры)                      : 0.210
    Размер потока                            : 1,07 Гбайт (78%)
    Библиотека кодирования                   : XviD 1.2.1 (UTC 2008-12-04)

    Аудио
    Идентификатор                            : 1
    Формат                                   : AC-3
    Формат/Информация                        : Audio Coding 3
    Расширение режима                        : CM (complete main)
    Параметр Endianness формата              : Big
    Идентификатор кодека                     : 2000
    Продолжительность                        : 1 ч. 49 м.
    Вид битрейта                             : Постоянный
    Битрейт                                  : 384 Кбит/сек
    Каналы                                   : 2 канала
    Расположение каналов                     : Front: L R
    Частота                                  : 48,0 КГц
    Битовая глубина                          : 16 бит
    Метод сжатия                             : С потерями
    Размер потока                            : 301 Мбайт (22%)
    Выравнивание                             : Разделение по промежуткам
    Продолжительность промежутка             : 42  мс. (1,00 видеокадр)
    Время предзагрузки промежутка            : 500  мс.


    Скриншоты:

    Трейлеры к фильмам [2014]

    © Оформление by Vetal
    pb.wtf



  • Скачать Короли танцпола через торрент https://pic.kartinco.top/images/6/ordi9.jpg Скачать фильм Короли танцпола через торрент бесплантно в хорошем качестве Описание:Фильм расскажет про подготовку би-боев, которые в конце года сразятся на финальном соревновании. Главные герои после поражения ... 9.5 10 28
    Info! Золотая раздача, скачанное не засчитывается.
    Торрент: Зарегистрирован [2014-01-23 08:40] · скачан: 1 091 раз
    Статус: √ проверено
    Размер: 1.37 GB
    Как cкачать? Как скачать Короли танцпола через торрент | UTorrent

    % Раздел Тема Автор DL S | L
    Фильмы [HD 720p, 1080p] (Хороший звук DUB, MVO) [ 7.96 GB ] Короли танцпола / Battle of the Year [2013 музыка BDRip 1080p] DUB от NNNB еnvy Скачать
    1 | 0
    Фильмы (DVD фильмы) [ 6.95 GB ] Короли танцпола / Battle of the Year [2013 музыка DVD9] R5 voovaz Скачать
    1 | 0
    Фильмы 2013 [DVDrip, WEB-DLRip, HDrip] [ 2.06 GB ] Короли танцпола / Battle of the Year [2013 музыка BDRip ] coc900 Скачать
    1 | 0
    3D Фильмы [ 8.83 GB ] Короли танцпола / Battle of the Year BDRip 1080p от Ash61 / 3D-Video / halfOU / Звук с DEVI Скачать
    1 | 0

    28-11-2019 20:33  

    Отключить всю рекламу на сайте

    27-01-2014 20:16 Короли танцпола Скачать торрент  

    Спасибо посмотрю.pb.wtf



      Дорогой пользователь! Огромная просьба, поблагодарите релизера, оцените раздачу и оставьте свои комментарий, если Вы скачали Короли танцпола через торрент бесплатно! Внесите свою лепту в развитие PiratBit!
      Комментировать посты могут только пользователи прошедшие не сложную регистрацию
      Показать сообщения:    

      Короли танцпола через торрент
      Скачать бесплатно Короли танцпола
      Короли танцпола скачать торрент
      Короли танцпола смотреть онлайн
      Cкачать фильм Короли танцпола бесплатно
      Короли танцпола скачать торрент в хорошем качестве
      Короли танцпола смотреть онлайн бесплатно в хорошем качестве


      Вы не можете начинать темы
      Вы не можете отвечать на сообщения
      Вы не можете редактировать свои сообщения
      Вы не можете удалять свои сообщения
      Вы не можете голосовать в опросах
      Вы не можете прикреплять файлы к сообщениям
      Вы можете скачивать файлы