2 сезон

iTunes

1 сезон

1

iTunes

iTunes

iTunes

1 сезон

RePack

30

ИГРА 18+

pack

ВАЖНО

!!Акция!!

Alien_RageХит недели

RePack

MK11
pack

Забери бонус

RePack

jed

!!Акция!!

Alien_Rage

RePack

fifa19

RePack

Assassins Creed: Odyssey

RePack

NEED FOR SPEED™ PAYBACK

4 сезон

9 сезон

Бесстыжие 9 сезон

Все сериалы

все сериалы на PB.wtf

RePack

FAR CRY 5
  

Сочувствие госпоже Месть / Chinjeolhan geumjassi (Пак Чхан Ук) [2005 г., триллер, драма, криминал, BDRip 720p, DUB, DVO] pb.wtf

Сочувствие госпоже Месть через торрент pb.wtf

Размер: 8.08 GB | Добавлен: 6 лет 9 мес. назад | Торрент скачан:49 раз
Скачать  

23-01-2014 10:00 Сочувствие госпоже Месть Скачать торрент  

Сочувствие госпоже Месть / Chinjeolhan geumjassi

Год выпуска: 2005
Страна: Корея Южная
Жанр: триллер, драма, криминал
Продолжительность: 01:55:09
Перевод: Дубляж + Профессиональный (двухголосый закадровый)
Субтитры: (SRT), Russian

Режиссер: Пак Чхан Ук
Продюссер: Чжо Ён Ук, Дж.Дж. Харрис, Бет Коно
Сценарий: Чон Сео Гён, Пак Чхан Ук
Премьера в мире: 29 июля 2005

IMDB 7.70 (40 310)


В ролях: Энг-е Ли, Мин-Сик Чои, Тони Бэрри, Anne Cordiner, Su-hee Go, Хи-дженг Кенг, Bu-seon Kim, Бйонг-Ок Ким, Shi-hoo Kim, Yea-young Kwon

Описание: Гым Чжа Ли в 19 лет попадает в тюрьму за похищение и убийство ребенка по ложному обвинению. В тюрьме она вынашивает план мести и завоевывает сердца заключенных собственной добротой, получив имя «Сердечная госпожа Гым Чжа». Отсидев 13 лет, Гым Чжа отправляется разыскивать предателя с помощью ее давних тюремных товарищей.

Качество: BDRip 720p
Формат: MKV
Видео кодек: AVC
Аудио кодек: DTS / AC3
Видео: AVC, 1280x548, 2.33:1, ~7400 kbps, 23,976 fps, Bits/(Pixel*Frame): 0.440
Аудио#1: Russian: 48 kHz, DTS, 3/2 (L,C,R,l,r) + LFE ch, ~768.00 kbps avg | Dub - Cinema Prestige
Аудио#2: Russian: 48 kHz, AC3, 3/2 (L,C,R,l,r) + LFE ch, ~384.00 kbps avg | DVO - Tycoon-Studio
Аудио#3: Korea: 48 kHz, DTS, 3/2 (L,C,R,l,r) + LFE ch, ~1536.00 kbps avg | Original
General
Unique ID : 178048525984108330727597859514645741807 (0x85F2E61618F264C498B9D211DF4800EF)
Complete name : /etc/seedbox/home/kep/data/Sympathy.For.Lady.Vengeance.2005.720p.BluRay.IIIKOJIO3ABP.mkv
Format : Matroska
Format version : Version 2
File size : 8.08 GiB
Duration : 1h 55mn
Overall bit rate : 10.0 Mbps
Encoded date : UTC 2014-01-22 10:37:37
Writing application : mkvmerge v5.5.0 ('Healer') built on Apr 24 2012 23:47:03
Writing library : libebml v1.2.3 + libmatroska v1.3.0

Video
ID : 1
Format : AVC
Format/Info : Advanced Video Codec
Format profile : High@L4.1
Format settings, CABAC : Yes
Format settings, ReFrames : 10 frames
Codec ID : V_MPEG4/ISO/AVC
Duration : 1h 55mn
Bit rate : 7 400 Kbps
Width : 1 280 pixels
Height : 548 pixels
Display aspect ratio : 2.35:1
Frame rate mode : Constant
Frame rate : 23.976 fps
Color space : YUV
Chroma subsampling : 4:2:0
Bit depth : 8 bits
Scan type : Progressive
Bits/(Pixel*Frame) : 0.440
Stream size : 5.79 GiB (72%)
Writing library : x264 core 124 r2197 69a0443
Encoding settings : cabac=1 / ref=10 / deblock=1:-2:-3 / analyse=0x3:0x113 / me=umh / subme=11 / psy=1 / psy_rd=1.00:0.00 / mixed_ref=1 / me_range=32 / chroma_me=1 / trellis=2 / 8x8dct=1 / cqm=0 / deadzone=21,11 / fast_pskip=0 / chroma_qp_offset=-2 / threads=18 / sliced_threads=0 / nr=0 / decimate=1 / interlaced=0 / bluray_compat=0 / constrained_intra=0 / bframes=9 / b_pyramid=2 / b_adapt=2 / b_bias=0 / direct=3 / weightb=1 / open_gop=0 / weightp=2 / keyint=240 / keyint_min=24 / scenecut=40 / intra_refresh=0 / rc=2pass / mbtree=0 / bitrate=7400 / ratetol=1.0 / qcomp=0.60 / qpmin=0 / qpmax=69 / qpstep=4 / cplxblur=20.0 / qblur=0.5 / ip_ratio=1.40 / pb_ratio=1.30 / aq=1:0.90
Language : English
Default : Yes
Forced : No

Audio #1
ID : 2
Format : DTS
Format/Info : Digital Theater Systems
Mode : 16
Format settings, Endianness : Big
Codec ID : A_DTS
Duration : 1h 55mn
Bit rate mode : Constant
Bit rate : 754 Kbps
Channel count : 6 channels
Channel positions : Front: L C R, Side: L R, LFE
Sampling rate : 48.0 KHz
Bit depth : 24 bits
Compression mode : Lossy
Stream size : 622 MiB (8%)
Title : Dub - Cinema Prestige
Language : Russian
Default : Yes
Forced : No

Audio #2
ID : 3
Format : AC-3
Format/Info : Audio Coding 3
Mode extension : CM (complete main)
Format settings, Endianness : Big
Codec ID : A_AC3
Duration : 1h 55mn
Bit rate mode : Constant
Bit rate : 384 Kbps
Channel count : 6 channels
Channel positions : Front: L C R, Side: L R, LFE
Sampling rate : 48.0 KHz
Bit depth : 16 bits
Compression mode : Lossy
Stream size : 316 MiB (4%)
Title : DVO - Tycoon-Studio
Language : Russian
Default : No
Forced : No

Audio #3
ID : 4
Format : DTS
Format/Info : Digital Theater Systems
Mode : 16
Format settings, Endianness : Big
Codec ID : A_DTS
Duration : 1h 55mn
Bit rate mode : Constant
Bit rate : 1 509 Kbps
Channel count : 6 channels
Channel positions : Front: L C R, Side: L R, LFE
Sampling rate : 48.0 KHz
Bit depth : 16 bits
Compression mode : Lossy
Stream size : 1.21 GiB (15%)
Title : Original
Language : Korean
Default : No
Forced : No

Text #1
ID : 5
Format : UTF-8
Codec ID : S_TEXT/UTF8
Codec ID/Info : UTF-8 Plain Text
Title : Ver.1 - Full
Language : Russian
Default : No
Forced : No

Text #2
ID : 6
Format : UTF-8
Codec ID : S_TEXT/UTF8
Codec ID/Info : UTF-8 Plain Text
Title : Ver.2 - Full
Language : Russian
Default : No
Forced : No
pb.wtf



Скачать Сочувствие госпоже Месть через торрент http://i6.imageban.ru/out/2014/01/23/b5dbe6b7c7ab4101e51ac2b174ef6b5b.png Скачать фильм Сочувствие госпоже Месть через торрент бесплантно в хорошем качестве Описание: Гым Чжа Ли в 19 лет попадает в тюрьму за похищение и убийство ребенка по ложному обвинению. В тюрьме она вынашивает план мести и ... 9.5 10 10
Info! Золотая раздача, скачанное не засчитывается.
Торрент: Зарегистрирован [2014-01-23 10:00] · скачан: 49 раз
Статус: √ проверено
Размер: 8.08 GB
Как cкачать? Как скачать Сочувствие госпоже Месть через торрент | qTorrent

% Раздел Тема Автор DL S | L
Азиатские фильмы [ 745 MB ] Сочувствие госпоже Месть / Sympathy For Lady Vengeance / Chinjeolhan geumjassi [2005 Южная Корея HDRip-AVC] [Director's Cut] Dub + Sub dexter lex Скачать
1 | 0

28-11-2019 20:33  

Отключить всю рекламу на сайте

27-02-2014 07:04 Сочувствие госпоже Месть Скачать торрент  

Спасибо, забираем!
Доработать постановку и врезать очень затяжной финал - получился бы добротный авангард pb.wtf



    Дорогой пользователь! Огромная просьба, поблагодарите релизера, оцените раздачу и оставьте свои комментарий, если Вы скачали Сочувствие госпоже Месть через торрент бесплатно! Внесите свою лепту в развитие PiratBit!
    Комментировать посты могут только пользователи прошедшие не сложную регистрацию
    Показать сообщения:    

    Сочувствие госпоже Месть через торрент
    Скачать бесплатно Сочувствие госпоже Месть
    Сочувствие госпоже Месть скачать торрент
    Сочувствие госпоже Месть смотреть онлайн
    Cкачать фильм Сочувствие госпоже Месть бесплатно
    Сочувствие госпоже Месть скачать торрент в хорошем качестве
    Сочувствие госпоже Месть смотреть онлайн бесплатно в хорошем качестве


    Вы не можете начинать темы
    Вы не можете отвечать на сообщения
    Вы не можете редактировать свои сообщения
    Вы не можете удалять свои сообщения
    Вы не можете голосовать в опросах
    Вы не можете прикреплять файлы к сообщениям
    Вы можете скачивать файлы