Ссылка на приватное зеркало нашего сайта всего за 1$. Внимание количество ограничено!!!

2 сезон

iTunes

1 сезон

1

iTunes

iTunes

iTunes

1 сезон

RePack

30

ИГРА 18+

pack

ВАЖНО

!!Акция!!

Alien_RageХит недели

RePack

MK11
pack

Забери бонус

RePack

jed

!!Акция!!

Alien_Rage

RePack

fifa19

RePack

Assassins Creed: Odyssey

RePack

NEED FOR SPEED™ PAYBACK

4 сезон

9 сезон

Бесстыжие 9 сезон

Все сериалы

все сериалы на PB.wtf

RePack

FAR CRY 5
  

Апофегей (2-серии) (Станислав Митин) [2013 г., драма, DVDRip] pb.wtf

Апофегей через торрент pb.wtf

Размер: 2.73 GB | Добавлен: 6 лет 8 мес. назад | Торрент скачан:226 раз
Скачать  

23-01-2014 10:45 Апофегей Скачать торрент  

Апофегей

Год выпуска: 2013
Страна: Россия
Жанр: драма
Продолжительность: 2 x ~ 01:25:00
Язык: Русский

Режиссер: Станислав Митин
Продюссер: Ирина Плиско
Сценарий: Станислав Митин, Юрий Поляков
Премьера (РФ): 13 июня 2013



В ролях: Даниил Страхов, Мария Миронова, Виктор Сухоруков, Владимир Гостюхин, Аглая Шиловская, Александр Лойе, Павел Любимцев, Сергей Кошонин, Андрей Межулис

Описание: Действия фильма разворачиваются в Москве в период с середины 70-х по конец 80-х гг. Фильм рассказывает о том, что происходит с человеком, устремленным на покорение карьерных высот; какую цену приходится заплатить за столь стремительное восхождение и, конечно же, о любви.

Качество: DVDRip
Формат: AVI
Видео кодек: XviD
Аудио кодек: AC3
Видео: XviD, 1 999 Kbps, 720x400, 25.000 fps, Bits/(Pixel*Frame): 0.278
Аудио: AC3, 2 ch, 192 Kbps, 48.0 KHz
General
Complete name : /etc/seedbox/home/kep/data/Apofegej.2013.E.01.04.DVDRip/Apofegej.2013.E.01.02.DVDRip.avi
Format : AVI
Format/Info : Audio Video Interleave
File size : 1.36 GiB
Duration : 1h 28mn
Overall bit rate : 2 201 Kbps
Writing application : VirtualDubMod 1.5.10.2 (build 2540/release)
Writing library : VirtualDubMod build 2540/release

Video
ID : 0
Format : MPEG-4 Visual
Format profile : Advanced Simple@L5
Format settings, BVOP : 2
Format settings, QPel : No
Format settings, GMC : No warppoints
Format settings, Matrix : Default (MPEG)
Codec ID : XVID
Codec ID/Hint : XviD
Duration : 1h 28mn
Bit rate : 1 999 Kbps
Width : 720 pixels
Height : 400 pixels
Display aspect ratio : 16:9
Frame rate : 25.000 fps
Color space : YUV
Chroma subsampling : 4:2:0
Bit depth : 8 bits
Scan type : Progressive
Compression mode : Lossy
Bits/(Pixel*Frame) : 0.278
Stream size : 1.24 GiB (91%)
Writing library : XviD 1.2.1 (UTC 2008-12-04)

Audio
ID : 1
Format : AC-3
Format/Info : Audio Coding 3
Mode extension : CM (complete main)
Format settings, Endianness : Big
Codec ID : 2000
Duration : 1h 28mn
Bit rate mode : Constant
Bit rate : 192 Kbps
Channel count : 2 channels
Channel positions : Front: L R
Sampling rate : 48.0 KHz
Bit depth : 16 bits
Compression mode : Lossy
Stream size : 122 MiB (9%)
Alignment : Split accross interleaves
Interleave, duration : 40 ms (1.00 video frame)
Interleave, preload duration : 500 ms
pb.wtf



Скачать Апофегей через торрент http://i3.imageban.ru/out/2014/01/23/2517c50613e2d6f1a07e8bb6e3e04da1.png Скачать фильм Апофегей через торрент бесплантно в хорошем качестве Описание: Действия фильма разворачиваются в Москве в период с середины 70-х по конец 80-х гг. Фильм рассказывает о том, что происходит с ... 9.6 10 9
Info! Золотая раздача, скачанное не засчитывается.
Торрент: Зарегистрирован [2014-01-23 10:45] · скачан: 226 раз
Статус: √ проверено
Размер: 2.73 GB
Как cкачать? Как скачать Апофегей через торрент | qTorrent

28-11-2019 20:33  

Отключить всю рекламу на сайте

    Дорогой пользователь! Огромная просьба, поблагодарите релизера, оцените раздачу и оставьте свои комментарий, если Вы скачали Апофегей через торрент бесплатно! Внесите свою лепту в развитие PiratBit!
    Комментировать посты могут только пользователи прошедшие не сложную регистрацию
    Показать сообщения:    

    Апофегей через торрент
    Скачать бесплатно Апофегей
    Апофегей скачать торрент
    Апофегей смотреть онлайн
    Cкачать фильм Апофегей бесплатно
    Апофегей скачать торрент в хорошем качестве
    Апофегей смотреть онлайн бесплатно в хорошем качестве


    Вы не можете начинать темы
    Вы не можете отвечать на сообщения
    Вы не можете редактировать свои сообщения
    Вы не можете удалять свои сообщения
    Вы не можете голосовать в опросах
    Вы не можете прикреплять файлы к сообщениям
    Вы можете скачивать файлы