Ссылка на приватное зеркало нашего сайта всего за 1$. Внимание количество ограничено!!!

2 сезон

iTunes

1 сезон

1

2 сезон

2 сезон

iTunes

1 сезон

RePack

30

Ultimate

ВАЖНО

ИГРА 18+

pack

RePack

MK11
pack

Забери бонус

RePack

jed

!!Акция!!

Alien_Rage

RePack

fifa19

RePack

Assassins Creed: Odyssey

RePack

NEED FOR SPEED™ PAYBACK

4 сезон

9 сезон

Бесстыжие 9 сезон

Все сериалы

все сериалы на PB.wtf

RePack

FAR CRY 5
  

Онг-Бак / Ong-Bak / Ong-Bak: The Thai Warrior (Прачья Пинкаю) [2003 г., боевик, криминал, приключения, BD-Remux, Профессиональный многоголосый (закадровый)] pb.wtf

Онг-Бак через торрент pb.wtf

Размер: 18.2 GB | Добавлен: 6 лет 10 мес. назад | Торрент скачан:10 раз
Скачать  

23-01-2014 12:27 Онг-Бак Скачать торрент  

Онг-Бак / Ong-Bak / Ong-Bak: The Thai Warrior
Год выпуска: 2003
Страна: Таиланд
Жанр: боевик, криминал, приключения
Продолжительность: 01:44:30
Перевод: Профессиональный многоголосый (закадровый)
Субтитры: Русские

Режиссер: Прачья Пинкаю
Продюссер: Акарапол Течаратанапрасерт, Прачья Пинкаю, Сюканая Вонгстапат
Сценарий: Супачай Ситиампан, Прачья Пинкаю, Панна Риттикрай

Премьера в мире: 21 января 2003



В ролях: Петчтай Вонгкамлао, Тони Джа, Пумвари Йодкамол, Сухао Понгвилай, Чумпхорн Тепфитак, Чатевут Ватчаракхун, Ваннакит Сириопут, Рунграви Баридзиндакул, Чаттхапонг Пантанаункул, Нудхапол Асавабхахин

Описание: Действие фильма начинается в небольшой деревушке Нанг Праду, расположенной на северо-востоке Таиланда, жителей которой постигает несчастье — пропала голова статуи Будды по имени Онг-Бак. Для того, чтобы вернуть статую, требуется человек, обладающий не только умом, но и физической силой.
Единственный, кто отвечает этим требованиям, — это Тинг перенявший искусство Муай Тай (тайский бокс) у почитаемого в деревне монаха.

Качество: BD-Remux
Формат: MKV
Видео кодек: H.264
Аудио кодек: AC3, DTS
Видео: MPEG-4 Part 10 (AVC); 1920x1080 (16:9); 19215 kbps; 24 fps; 0.432 bpp
Аудио#1: Rus, 48 kHz, DTS, 3/2 (L,C,R,l,r) + LFE ch, ~768 kbps - (MVO R5 Лицензия)
Аудио#2: Rus, 48 kHz, AC3 Dolby Digital, 2/0 (L,R), ~192.00 kbps - (AVO Гранкин)
Аудио#3: Ukr, 48 kHz, AC3 Dolby Digital, 2/0 (L,R), ~192.00 kbps - (MVO Так треба продакшн)
Аудио#4: Thai, 48 kHz, AC3 Dolby Digital, 2/0 (L,R), ~256.00 kbps - (Оригинал / Thai)
Аудио#5: Thai, DTS Master Audio, 5.1 channels, 24 bits, 4323.00 kbps, 48kHz (core: DTS, 5.1 channels, 24 bits, 1509 kbps, 48kHz) - (Оригинал / French)



Общее
Уникальный идентификатор : 190932116084795207363235246151806089797 (0x8FA4301EE2FAB00F99A61D3A6A59FA45)
Полное имя : E:Онг-Бак ~ Ong-Bak (2003) BD-Remux.mkv
Формат : Matroska
Версия формата : Version 2
Размер файла : 18,2 Гбайт
Продолжительность : 1 ч. 44 м.
Режим общего битрейта : Переменный
Общий поток : 24,9 Мбит/сек
Дата кодирования : UTC 2012-01-20 18:30:25
Программа кодирования : mkvmerge v5.1.0 ('And so it goes') built on Nov 28 2011 23:58:28
Библиотека кодирования : libebml v1.2.3 + libmatroska v1.3.0

Видео
Идентификатор : 1
Формат : AVC
Формат/Информация : Advanced Video Codec
Профиль формата : High@L4.1
Параметр CABAC формата : Да
Параметр ReFrames формата : 3 кадра
Идентификатор кодека : V_MPEG4/ISO/AVC
Продолжительность : 1 ч. 44 м.
Вид битрейта : Переменный
Максимальный битрейт : 30,0 Мбит/сек
Ширина : 1920 пикселей
Высота : 1080 пикселей
Соотношение сторон : 16:9
Режим частоты кадров : Постоянный
Частота кадров : 24,000 кадра/сек
Стандарт вещания : NTSC
Цветовое пространство : YUV
Субдискретизация насыщенности : 4:2:0
Битовая глубина : 8 бит
Тип развёртки : Прогрессивная
Default : Да
Forced : Нет

Аудио #1
Идентификатор : 2
Формат : DTS
Формат/Информация : Digital Theater Systems
Режим : 16
Параметр Endianness формата : Big
Идентификатор кодека : A_DTS
Продолжительность : 1 ч. 44 м.
Вид битрейта : Постоянный
Битрейт : 755 Кбит/сек
Каналы : 6 каналов
Расположение каналов : Front: L C R, Side: L R, LFE
Частота : 48,0 КГц
Битовая глубина : 24 бит
Метод сжатия : С потерями
Размер потока : 564 Мбайт (3%)
Заголовок : R5
Язык : Russian
Default : Да
Forced : Нет

Аудио #2
Идентификатор : 3
Формат : AC-3
Формат/Информация : Audio Coding 3
Расширение режима : CM (complete main)
Параметр Endianness формата : Big
Идентификатор кодека : A_AC3
Продолжительность : 1 ч. 44 м.
Вид битрейта : Постоянный
Битрейт : 192 Кбит/сек
Каналы : 2 канала
Расположение каналов : Front: L R
Частота : 48,0 КГц
Битовая глубина : 16 бит
Метод сжатия : С потерями
Размер потока : 144 Мбайт (1%)
Заголовок : Гранкин
Язык : Russian
Default : Нет
Forced : Нет

Аудио #3
Идентификатор : 4
Формат : AC-3
Формат/Информация : Audio Coding 3
Расширение режима : CM (complete main)
Параметр Endianness формата : Big
Идентификатор кодека : A_AC3
Продолжительность : 1 ч. 44 м.
Вид битрейта : Постоянный
Битрейт : 192 Кбит/сек
Каналы : 2 канала
Расположение каналов : Front: L R
Частота : 48,0 КГц
Битовая глубина : 16 бит
Метод сжатия : С потерями
Размер потока : 144 Мбайт (1%)
Заголовок : MVO Так Треба Продакшн
Язык : Ukrainian
Default : Нет
Forced : Нет

Аудио #4
Идентификатор : 5
Формат : AC-3
Формат/Информация : Audio Coding 3
Расширение режима : CM (complete main)
Параметр Endianness формата : Big
Идентификатор кодека : A_AC3
Продолжительность : 1 ч. 44 м.
Вид битрейта : Постоянный
Битрейт : 256 Кбит/сек
Каналы : 2 канала
Расположение каналов : Front: L R
Частота : 48,0 КГц
Битовая глубина : 16 бит
Метод сжатия : С потерями
Размер потока : 191 Мбайт (1%)
Заголовок : Original (Thai soundtrack)
Язык : Thai
Default : Нет
Forced : Нет

Аудио #5
Идентификатор : 6
Формат : DTS
Формат/Информация : Digital Theater Systems
Профиль формата : MA / Core
Режим : 16
Параметр Endianness формата : Big
Идентификатор кодека : A_DTS
Продолжительность : 1 ч. 44 м.
Вид битрейта : Переменный
Битрейт : Неизвестно / 1509 Кбит/сек
Каналы : 6 каналов
Расположение каналов : Front: L C R, Side: L R, LFE
Частота : 48,0 КГц
Битовая глубина : 24 бит
Метод сжатия : Без потерь / Lossy
Заголовок : Original (French soundtrack)
Язык : Thai
Default : Нет
Forced : Нет

Текст
Идентификатор : 7
Формат : UTF-8
Идентификатор кодека : S_TEXT/UTF8
Идентификатор кодека/Информация : UTF-8 Plain Text
Заголовок : Full Russian (R5)
Язык : Russian
Default : Нет
Forced : Нет

Меню
00:00:00.000 : en:Вступительные титры
00:00:52.000 : en:Борьба за флаг
00:07:28.792 : en:Древнее искуство Муай Тай
00:10:11.250 : en:Судьба целой деревни
00:13:45.708 : en:Хам Лае
00:20:16.583 : en:Бойцовский клуб Кхаосан
00:22:51.083 : en:Легенда Праду
00:27:15.625 : en:Засуха в деревне
00:32:00.792 : en:Шальные деньги
00:34:35.750 : en:Взять его!
00:40:42.292 : en:Большой Медведь
00:44:20.083 : en:Следующий бой
00:50:03.292 : en:Шок и трепет
00:55:54.875 : en:После клуба
00:58:07.500 : en:Поиски Дона
01:00:56.750 : en:Преследование на моторикшах
01:03:35.875 : en:Затонувшие сокровища
01:08:57.125 : en:Предложение
01:11:32.292 : en:Бой Верёвка Кулак
01:16:14.667 : en:Комплекс Бога
01:22:15.125 : en:Схватка в пещере
01:25:40.125 : en:Реванш
01:36:36.042 : en:Скажите моему отцу
01:39:21.208 : en:Торжество
01:40:38.958 : en:Финальные титры
pb.wtf



Скачать Онг-Бак через торрент http://pic.kartinco.top/images/6/o367z.jpg Скачать фильм Онг-Бак через торрент бесплантно в хорошем качестве Описание: Действие фильма начинается в небольшой деревушке Нанг Праду, расположенной на северо-востоке Таиланда, жителей которой постигает ... 9.8 10 10
Info! Золотая раздача, скачанное не засчитывается.
Торрент: Зарегистрирован [2014-01-23 12:27] · скачан: 10 раз
Статус: √ проверено
Размер: 18.2 GB
Как cкачать? Как скачать Онг-Бак через торрент | qTorrent

% Раздел Тема Автор DL S | L
Фильмы (HD 720p, 1080p) (48-60 fps) [ 4.72 GB ] Онг-Бак: Тайский воин / Ong-Bak: The Thai Warrior [2003 BDRip 720p / 60 FPS ] от R.G. HD-Films slaventi-69 Скачать
3 | 0

28-11-2019 20:33  

Отключить всю рекламу на сайте

23-01-2014 12:36 Онг-Бак Скачать торрент  

Ох, хороший фильмец. Смотрел его неоднократно.
Рекомендую к просмотру. yespb.wtf



23-01-2014 12:37 Онг-Бак Скачать торрент  

Раздают: 1 [ 0 KB/s ]pb.wtf



23-01-2014 13:06 Онг-Бак Скачать торрент  

Кто не смотрел - обязательно посмотрите) 3 часть, честно говоря, хлам...но первые 2 посмотреть стоит)pb.wtf



23-01-2014 13:46 Онг-Бак Скачать торрент  

Тони Джа крут...pb.wtf



    Дорогой пользователь! Огромная просьба, поблагодарите релизера, оцените раздачу и оставьте свои комментарий, если Вы скачали Онг-Бак через торрент бесплатно! Внесите свою лепту в развитие PiratBit!
    Комментировать посты могут только пользователи прошедшие не сложную регистрацию
    Показать сообщения:    

    Онг-Бак через торрент
    Скачать бесплатно Онг-Бак
    Онг-Бак скачать торрент
    Онг-Бак смотреть онлайн
    Cкачать фильм Онг-Бак бесплатно
    Онг-Бак скачать торрент в хорошем качестве
    Онг-Бак смотреть онлайн бесплатно в хорошем качестве


    Вы не можете начинать темы
    Вы не можете отвечать на сообщения
    Вы не можете редактировать свои сообщения
    Вы не можете удалять свои сообщения
    Вы не можете голосовать в опросах
    Вы не можете прикреплять файлы к сообщениям
    Вы можете скачивать файлы