Ссылка на приватное зеркало нашего сайта всего за 1$. Внимание количество ограничено!!!

2 сезон

iTunes

1 сезон

1

2 сезон

2 сезон

iTunes

1 сезон

RePack

30

Ultimate

ВАЖНО

ИГРА 18+

pack

RePack

MK11
pack

Забери бонус

RePack

jed

!!Акция!!

Alien_Rage

RePack

fifa19

RePack

Assassins Creed: Odyssey

RePack

NEED FOR SPEED™ PAYBACK

4 сезон

9 сезон

Бесстыжие 9 сезон

Все сериалы

все сериалы на PB.wtf

RePack

FAR CRY 5
  

Сонная Лощина /1 сезон: 1-13 серии из 13/ (Пол А. Эдвардс, Кен Олин, Дуглас Арниокоски) [2013 г., триллер, приключения, фэнтези, WEB-DL 720p, Профессиональный многоголосый] pb.wtf

Сонная Лощина через торрент pb.wtf

Размер: 19.16 GB | Добавлен: 6 лет 10 мес. назад | Торрент скачан:275 раз
Скачать  

24-01-2014 00:21 Сонная Лощина Скачать торрент  

Сонная Лощина / Sleepy Hollow

Год выпуска: 2013
Страна: США
Выпущено: 20th Century Fox Television, Kurtzman Orci Paper Product
Жанр: триллер, приключения, фэнтези
Продолжительность: 13 х ~ 00:44:00
Перевод: Профессиональный многоголосый |NewStudio|

Режиссер: Пол А. Эдвардс Кен Олин Дуглас Арниокоски
Продюссер: Марк Гоффман, Филлип Айскоув, Хезер Кадин
Сценарий: Филлип Айскоув, Алекс Куртцман, Роберто Орси
Премьера в мире: 16 сентября 2013

IMDB 7.90 (19 520)


В ролях: Том Мисон, Николь Бехари, Орландо Джонс, Катя Винтер, Меми Уэст, Кристофер МакКоннелл, Клэнси Браун, Ричард Цетрон, Джон Чо, Кристофер Козорт

Описание: Икабод Крэйн просыпается от предсмертной агонии, переместившись во времени на 250 лет вперед. Крэйн обнаруживает мир на грани разрушения и узнает, что только он является единственной надеждой человечества.

Качество: WEB-DL 720p
Формат: MKV
Видео кодек: AVC
Аудио кодек: AC3
Видео: AVC, 4 016 Kbps, 1 280x718 , 23.976 fps, Bits/(Pixel*Frame): 0.182
Аудио#1: Russian: AC-3, 384 Kbps, 6 ch, 48.0 KHz
Аудио#2: English: AC-3, 384 Kbps, 6 ch, 48.0 KHz
General
Unique ID : 212447793177089353212381392183815739835 (0x9FD3F4E70193B464ACFB77D9DEE299BB)
Complete name : /etc/seedbox/home/eruslannr/data/Sleepy.Hollow.(s01).720p/Sleepy.Hollow.s01e01.WEBDL.720p.mkv
Format : Matroska
Format version : Version 2
File size : 1.61 GiB
Duration : 47mn 12s
Overall bit rate : 4 881 Kbps
Encoded date : UTC 2013-09-17 21:14:43
Writing application : mkvmerge v2.9.9 ('Tutu') built on Nov 25 2009 21:13:32
Writing library : libebml v0.7.9 + libmatroska v0.8.1

Video
ID : 1
Format : AVC
Format/Info : Advanced Video Codec
Format profile : High@L3.1
Format settings, CABAC : No
Format settings, ReFrames : 2 frames
Codec ID : V_MPEG4/ISO/AVC
Duration : 47mn 12s
Bit rate : 4 016 Kbps
Width : 1 280 pixels
Height : 718 pixels
Display aspect ratio : 16:9
Frame rate mode : Constant
Frame rate : 23.976 fps
Color space : YUV
Chroma subsampling : 4:2:0
Bit depth : 8 bits
Scan type : Progressive
Bits/(Pixel*Frame) : 0.182
Stream size : 1.32 GiB (82%)
Language : English
Default : No
Forced : No
Color primaries : BT.709
Transfer characteristics : BT.709
Matrix coefficients : BT.709

Audio #1
ID : 2
Format : AC-3
Format/Info : Audio Coding 3
Mode extension : CM (complete main)
Format settings, Endianness : Big
Codec ID : A_AC3
Duration : 47mn 12s
Bit rate mode : Constant
Bit rate : 384 Kbps
Channel count : 6 channels
Channel positions : Front: L C R, Side: L R, LFE
Sampling rate : 48.0 KHz
Bit depth : 16 bits
Compression mode : Lossy
Stream size : 130 MiB (8%)
Language : Russian
Default : Yes
Forced : Yes

Audio #2
ID : 3
Format : AC-3
Format/Info : Audio Coding 3
Mode extension : CM (complete main)
Format settings, Endianness : Big
Codec ID : A_AC3
Duration : 47mn 12s
Bit rate mode : Constant
Bit rate : 384 Kbps
Channel count : 6 channels
Channel positions : Front: L C R, Side: L R, LFE
Sampling rate : 48.0 KHz
Bit depth : 16 bits
Compression mode : Lossy
Stream size : 130 MiB (8%)
Language : English
Default : No
Forced : No
pb.wtf



Скачать Сонная Лощина через торрент http://i2.imageban.ru/out/2014/01/24/ff584c0e017461a1bc49f8f892bef397.png Скачать фильм Сонная Лощина через торрент бесплантно в хорошем качестве Описание: Икабод Крэйн просыпается от предсмертной агонии, переместившись во времени на 250 лет вперед. Крэйн обнаруживает мир на грани ... 10 10 13
Info! Золотая раздача, скачанное не засчитывается.
Торрент: Зарегистрирован [2014-01-24 00:21] · скачан: 275 раз
Статус: √ проверено
Размер: 19.16 GB
Как cкачать? Как скачать Сонная Лощина через торрент | qTorrent

% Раздел Тема Автор DL S | L
Зарубежные сериалы [ 29.64 GB ] Сонная Лощина / Sleepy Hollow / Сезон: 1-4 / Серии: 1-62 из 62 [2013-2017 WEB-DLRip] MVO [LostFilm] bober100 Скачать
1 | 0
Зарубежные сериалы [ 3.91 GB ] Сонная Лощина / Sleepy Hollow / Сезон: 1 / Серии: 1-2 из 13 [2013 WEB-DL 1080p] MVO +Original pirat6999 Скачать
1 | 0

28-11-2019 20:33  

Отключить всю рекламу на сайте

    Дорогой пользователь! Огромная просьба, поблагодарите релизера, оцените раздачу и оставьте свои комментарий, если Вы скачали Сонная Лощина через торрент бесплатно! Внесите свою лепту в развитие PiratBit!
    Комментировать посты могут только пользователи прошедшие не сложную регистрацию
    Показать сообщения:    

    Сонная Лощина через торрент
    Скачать бесплатно Сонная Лощина
    Сонная Лощина скачать торрент
    Сонная Лощина смотреть онлайн
    Cкачать фильм Сонная Лощина бесплатно
    Сонная Лощина скачать торрент в хорошем качестве
    Сонная Лощина смотреть онлайн бесплатно в хорошем качестве


    Вы не можете начинать темы
    Вы не можете отвечать на сообщения
    Вы не можете редактировать свои сообщения
    Вы не можете удалять свои сообщения
    Вы не можете голосовать в опросах
    Вы не можете прикреплять файлы к сообщениям
    Вы можете скачивать файлы