2 сезон

iTunes

MVO

1

2 сезон

iTunes

iTunes

1 сезон

RePack

30

Новинка

ВАЖНО

ИГРА 18+

pack

RePack

MK11
pack

Легкие деньги

RePack

jed

RePack

fifa19

RePack

RDR2

RePack

NEED FOR SPEED™ PAYBACK

4 сезон

9 сезон

Бесстыжие 9 сезон

Все сериалы

все сериалы на PB.wtf

RePack

FAR CRY 5

Anonymous, доброй ночи, мы не успеваем собрать деньги на оплату серверов за декабрь и январь, помогите нам пожалуйста в это трудное время. В качестве благодарности мы отключим Вам всю рекламу на сайте (укажите свой ник в строку Ваше имя)!

×
  
Magnet ссылка

Чупакабра против Аламо / Chupacabra vs. the Alamo (Терри Ингрэм / Terry Ingram) [ 2013 , США , ужасы, фэнтези, боевик , HDRip, Профессиональный (многоголосый, закадровый) ] pb.wtf

Чупакабра против Аламо через торрент pb.wtf

Размер: 1.37 GB | Добавлен: 6 лет 11 мес. назад | Торрент скачан:312 раз
Скачать  

24-01-2014 04:52 Чупакабра против Аламо Скачать торрент  

Чупакабра против Аламо / Chupacabra vs. the Alamo
«Mythical monsters force new last stand at the Old Alamo»
Год выпуска: 2013
Страна: США
Жанр: ужасы, фэнтези, боевик
Продолжительность: 01:27:10
Перевод: Профессиональный (многоголосый, закадровый)
Субтитры: Нет

Режиссер: Терри Ингрэм / Terry Ingram
Сценарий: Питер Салливан / Peter Sullivan, Джеффри Шенк / Jeffrey Schenck
Продюсер: Джеффри Шенк / Jeffrey Schenck, Кирк Шоу / Kirk Shaw, Деви Сингх / Devi Singh, Кит Шоу / Keith Shaw
Оператор: Энтони С. Метчи / Anthony C. Metchie
Композитор: Стью Голдберг / Stu Goldberg

В ролях: Эрик Эстрада (Carlos Seguin), Джулия Андерсон (Tracy Taylor), Хорхе Варгас (Tommy Seguin /Spider), Ванеса Томасино (Agent Dani), Николь Муньос (Sienna Seguin), Чад Кровчук (Crockett), Брент МакЛарен (Loco), Cassandra Fernandez (Shorty), Бишоп (Gordo), Аня Савчич (Brooke), Алекс Паунович (Agent Perez), Зак Сантьяго (Commander Wilcox)

Мировая премьера: 23 марта 2013

Описание: Агент наркоконтроля Карлос Сегуин расследует убийства, связанные с наркотиками, но вскоре узнает, что подозреваемый не является человеком.

Качество: HDRip
Формат: AVI
Видео кодек: XviD
Аудио кодек: AC3
Видео: 2043 Кбит/сек, 720*400 (16:9), в 23,976 кадра/сек, MPEG-4 Visual (XviD
Аудио: 192 Кбит/сек, 48,0 КГц, 16 бит, 2 канала, AC-3

Общее
Кол-во : 279
Кол-во потоков такого типа : 1
Тип потока : General
Тип потока : Общее
Идентификатор типа потока : 0
Inform : AVI: 1,37 Гбайт, 1 ч. 27 м.
Кол-во видеопотоков : 1
Кол-во аудиопотоков : 1
Video_Format_List : MPEG-4 Visual
Video_Format_WithHint_List : MPEG-4 Visual (XviD)
Видеокодеки : XviD
Audio_Format_List : AC-3
Audio_Format_WithHint_List : AC-3
Аудиокодеки : AC3
Полное имя : D:ФильмыЧупакабра.avi
Имя папки : D:Фильмы
Имя файла : Чупакабра
Расширение : avi
Формат : AVI
Формат : AVI
Формат/Информация : Audio Video Interleave
Формат/Используется в : avi
Коммерческое название : AVI
Интернет-тип носителя : video/vnd.avi
Чередующаяся : Yes
Кодек : AVI
Кодек : AVI
Кодек/Информация : Audio Video Interleave
Кодек/Используется в : avi
Размер файла : 1467344896
Размер файла : 1,37 Гбайт
Размер файла : 1 Гбайт
Размер файла : 1,4 Гбайт
Размер файла : 1,37 Гбайт
Размер файла : 1,367 Гбайт
Продолжительность : 5230439
Продолжительность : 1 ч. 27 м.
Продолжительность : 1 ч. 27 м. 10 с. 439 мс.
Продолжительность : 1 ч. 27 м.
Продолжительность : 01:27:10.439
Общий поток : 2244316
Общий поток : 2244 Кбит/сек
Размер потока : 6218094
Размер потока : 5,93 Мбайт (0%)
Размер потока : 6 Мбайт
Размер потока : 5,9 Мбайт
Размер потока : 5,93 Мбайт
Размер потока : 5,930 Мбайт
Размер потока : 5,93 Мбайт (0%)
Пропорции потока : 0.00424
Дата файла : UTC 2014-01-24 02:32:56.722
Дата файла (местная) : 2014-01-24 09:32:56.722
Дата изменения файла : UTC 2014-01-24 04:25:44.942
Дата изменения файла (местная) : 2014-01-24 11:25:44.942
Программа кодирования : VirtualDubMod 1.5.10.2 (build 2540/release)
Библиотека кодирования : VirtualDubMod build 2540/release
Библиотека кодирования : VirtualDubMod build 2540/release

Видео
Кол-во : 248
Кол-во потоков такого типа : 1
Тип потока : Video
Тип потока : Видео
Идентификатор типа потока : 0
Inform : 2043 Кбит/сек, 720*400 (16:9), в 23,976 кадра/сек, MPEG-4 Visual (XviD) (Advanced Simple@L5) (BVOP2)
Идентификатор : 0
Идентификатор : 0
Формат : MPEG-4 Visual
Коммерческое название : MPEG-4 Visual
Профиль формата : Advanced Simple@L5
Настройки формата : BVOP2
Параметр BVOP формата : 2
Параметр BVOP формата : 2
Параметр QPel формата : No
Параметр QPel формата : Нет
Параметр GMC формата : 0
Параметр GMC формата : Без точки перехода
Параметр матрицы формата : Default (MPEG)
Параметр матрицы формата : Default (MPEG)
Интернет-тип носителя : video/MP4V-ES
Идентификатор кодека : XVID
Идентификатор кодека/Подсказка : XviD
Идентификатор кодека/Ссылка : http://mediaarea.net/XVID
Кодек : XVID
Кодек : XviD
Кодек/Семейство : MPEG-4V
Кодек/Информация : XviD project
Кодек/Ссылка : http://www.xvid.org/Downloads.15.0.html
Кодек/CC : XVID
Профиль кодека : Advanced Simple@L5
Настройки кодека : BVOP
Параметр пакетного потока данных кодека : No
Параметр BVOP кодека : Yes
Параметр QPel кодека : No
Параметр GMC кодека : 0
Параметр GMC кодека : Без точки перехода
Параметр матрицы кодека : Default (MPEG)
Продолжительность : 5230434
Продолжительность : 1 ч. 27 м.
Продолжительность : 1 ч. 27 м. 10 с. 434 мс.
Продолжительность : 1 ч. 27 м.
Продолжительность : 01:27:10.434
Битрейт : 2042806
Битрейт : 2043 Кбит/сек
Ширина : 720
Ширина : 720 пикселей
Высота : 400
Высота : 400 пикселей
Пропорции пикселя : 1.000
Соотношение сторон : 1.800
Соотношение сторон : 16:9
Частота кадров : 23.976
Частота кадров : 23,976 кадра/сек
Счётчик кадров : 125405
Разрешение : 8
Разрешение : 8 бит
Колориметрия : 4:2:0
Цветовое пространство : YUV
Субдискретизация насыщенности : 4:2:0
Битовая глубина : 8
Битовая глубина : 8 бит
Тип развёртки : Progressive
Тип развёртки : Прогрессивная
Переплетение : PPF
Переплетение : Прогрессивная
Метод сжатия : Lossy
Метод сжатия : С потерями
Бит/(Пиксели*Кадры) : 0.296
Задержка : 0
Задержка : 00:00:00.000
Размер потока : 1335596271
Размер потока : 1,24 Гбайт (91%)
Размер потока : 1 Гбайт
Размер потока : 1,2 Гбайт
Размер потока : 1,24 Гбайт
Размер потока : 1,244 Гбайт
Размер потока : 1,24 Гбайт (91%)
Пропорции потока : 0.91021
Библиотека кодирования : XviD0050
Библиотека кодирования : XviD 1.2.1 (UTC 2008-12-04)
Библиотека кодирования/Имя : XviD
Библиотека кодирования/Version : 1.2.1
Библиотека кодирования/Дата : UTC 2008-12-04

Аудио
Кол-во : 246
Кол-во потоков такого типа : 1
Тип потока : Audio
Тип потока : Аудио
Идентификатор типа потока : 0
Inform : 192 Кбит/сек, 48,0 КГц, 16 бит, 2 канала, AC-3
Идентификатор : 1
Идентификатор : 1
Формат : AC-3
Формат/Информация : Audio Coding 3
Коммерческое название : AC-3
Расширение режима : CM (complete main)
Параметр Endianness формата : Big
Идентификатор кодека : 2000
Кодек : AC3
Кодек : AC3
Кодек/Семейство : AC3
Кодек/Информация : Dolby AC3
Кодек/CC : 2000
Продолжительность : 5230439
Продолжительность : 1 ч. 27 м.
Продолжительность : 1 ч. 27 м. 10 с. 439 мс.
Продолжительность : 1 ч. 27 м.
Продолжительность : 01:27:10.439
Вид битрейта : CBR
Вид битрейта : Постоянный
Битрейт : 192000
Битрейт : 192 Кбит/сек
Каналы : 2
Каналы : 2 канала
Расположение каналов : Front: L R
Расположение каналов : 2/0/0
Частота : 48000
Частота : 48,0 КГц
Количество образцов : 251061072
Разрешение : 16
Разрешение : 16 бит
Битовая глубина : 16
Битовая глубина : 16 бит
Метод сжатия : Lossy
Метод сжатия : С потерями
Задержка : 0
Задержка : 00:00:00.000
Задержка в оригинале : Stream
Задержка в оригинале : 'Сырой' поток
Задержка видео : 0
Задержка видео : 0
Размер потока : 125530531
Размер потока : 120 Мбайт (9%)
Размер потока : 120 Мбайт
Размер потока : 120 Мбайт
Размер потока : 120 Мбайт
Размер потока : 119,7 Мбайт
Размер потока : 120 Мбайт (9%)
Пропорции потока : 0.08555
Выравнивание : Split
Выравнивание : Разделение по промежуткам
Продолжительность промежутка : 1.00
Продолжительность промежутка : 42
Продолжительность промежутка : 42 мс. (1,00 видеокадр)
Время предзагрузки промежутка : 500
Время предзагрузки промежутка : 500 мс.
dsurmod : 0
dialnorm : -27
dialnorm/String : -27 dB
compr : -0.28
compr/String : -0.28 dB
dynrng : 17.92
dynrng/String : 17.92 dB
bsid : 8
dialnorm_Average : -27
dialnorm_Average/String : -27 dB
dialnorm_Minimum : -27
dialnorm_Minimum/String : -27 dB
dialnorm_Maximum : -27
dialnorm_Maximum/String : -27 dB
dialnorm_Count : 405
compr_Average : -1.82
compr_Average/String : -1.82 dB
compr_Minimum : -6.88
compr_Minimum/String : -6.88 dB
compr_Maximum : 1.94
compr_Maximum/String : 1.94 dB
compr_Count : 405
dynrng_Average : 10.96
dynrng_Average/String : 10.96 dB
dynrng_Minimum : -23.81
dynrng_Minimum/String : -23.81 dB
dynrng_Maximum : 22.76
dynrng_Maximum/String : 22.76 dB
dynrng_Count : 405


скриншот  скриншот  скриншот  скриншот  скриншот  скриншот  



pb.wtf



Скачать Чупакабра против Аламо через торрент http://s019.radikal.ru/i612/1401/e3/c7bb03f39fe2.jpg Скачать фильм Чупакабра против Аламо через торрент бесплантно в хорошем качестве Описание: Агент наркоконтроля Карлос Сегуин расследует убийства, связанные с наркотиками, но вскоре узнает, что подозреваемый не является ... 9.4 10 18
Info! Золотая раздача, скачанное не засчитывается.
Торрент: Зарегистрирован [2014-01-24 04:52] · скачан: 312 раз
Статус: √ проверено
Размер: 1.37 GB
Как cкачать? Как скачать Чупакабра против Аламо через торрент | UTorrent



Последний раз редактировалось: GEKADOL (2014-01-24 05:06), всего редактировалось 1 раз

28-11-2019 20:33  

Отключить всю рекламу на сайте

24-01-2014 04:57 Чупакабра против Аламо Скачать торрент  

Судя по рейтенгу просто ШЕДЕВР!!!!pb.wtf



24-01-2014 05:15 Чупакабра против Аламо Скачать торрент  

ТВ-3 просто рыдает)))pb.wtf



24-01-2014 05:58 Чупакабра против Аламо Скачать торрент  

Ну и слив жеpb.wtf



24-01-2014 06:03 Чупакабра против Аламо Скачать торрент  

никогда не понимал зачем снимать подобные шедевры :hunter:pb.wtf



24-01-2014 06:41 Чупакабра против Аламо Скачать торрент  

чего только не привидится Агенту по борьбе с НАРКОТИКАМИ! :rofle:pb.wtf



24-01-2014 07:55 Чупакабра против Аламо Скачать торрент  

Надо у режиссера узнать, откуда трава???? pb.wtf



24-01-2014 10:43 Чупакабра против Аламо Скачать торрент  

Stopper68 писал(а):

чего только не привидится Агенту по борьбе с НАРКОТИКАМИ! :rofle:

pb.wtf



24-01-2014 18:14 Чупакабра против Аламо Скачать торрент  

Stopper68 писал(а):

чего только не привидится Агенту по борьбе с НАРКОТИКАМИ! :rofle:

yes :rofle:pb.wtf



24-01-2014 19:57 Чупакабра против Аламо Скачать торрент  

тапок против таракана чо ещё да сколь угодно можно напридумывать)pb.wtf



25-01-2014 19:57 Чупакабра против Аламо Скачать торрент  

а я думал чуп=бакабра только у нас .........а она везде мерещится............УУУУУжасссссссс!pb.wtf



27-01-2014 07:55 Чупакабра против Аламо Скачать торрент  

yes yes yes :rofle:

mehanov2010 писал(а):

Надо у режиссера узнать, откуда трава????

pb.wtf



    Дорогой пользователь! Огромная просьба, поблагодарите релизера, оцените раздачу и оставьте свои комментарий, если Вы скачали Чупакабра против Аламо через торрент бесплатно! Внесите свою лепту в развитие PiratBit!
    Комментировать посты могут только пользователи прошедшие не сложную регистрацию
    Показать сообщения:    

    Чупакабра против Аламо через торрент
    Скачать бесплатно Чупакабра против Аламо
    Чупакабра против Аламо скачать торрент
    Чупакабра против Аламо смотреть онлайн
    Cкачать фильм Чупакабра против Аламо бесплатно
    Чупакабра против Аламо скачать торрент в хорошем качестве
    Чупакабра против Аламо смотреть онлайн бесплатно в хорошем качестве


    Вы не можете начинать темы
    Вы не можете отвечать на сообщения
    Вы не можете редактировать свои сообщения
    Вы не можете удалять свои сообщения
    Вы не можете голосовать в опросах
    Вы не можете прикреплять файлы к сообщениям
    Вы можете скачивать файлы