Ссылка на приватное зеркало нашего сайта всего за 1$. Внимание количество ограничено!!!

2 сезон

iTunes

1 сезон

1

2 сезон

2 сезон

iTunes

1 сезон

RePack

30

Ultimate

ВАЖНО

ИГРА 18+

pack

RePack

MK11
pack

Забери бонус

RePack

jed

!!Акция!!

Alien_Rage

RePack

fifa19

RePack

Assassins Creed: Odyssey

RePack

NEED FOR SPEED™ PAYBACK

4 сезон

9 сезон

Бесстыжие 9 сезон

Все сериалы

все сериалы на PB.wtf

RePack

FAR CRY 5
  

Смерть ей к лицу / Death Becomes Her (Роберт Земекис) [1992, США, фантастика, комедия, BD Remux] 4xMVO + AVO [Михалев] + Sub pb.wtf

Смерть ей к лицу через торрент pb.wtf

Размер: 20.03 GB | Добавлен: 6 лет 10 мес. назад | Торрент скачан:21 раз
Скачать  

24-01-2014 13:20 Смерть ей к лицу Скачать торрент  

Смерть ей к лицу / Death Becomes Her
«В одном небольшом флаконе ... Фонтан молодости. Секрет вечной жизни. Сила древнего напитка. Иногда он работает ... иногда нет»
Год выпуска: 1992
Страна: США
Жанр: фантастика, комедия
Продолжительность: 01:43:28
Перевод:
|Профессиональный (многоголосый, закадровый), НТВ+|
|Профессиональный (многоголосый, закадровый)|
|Профессиональный (многоголосый, закадровый), ОРТ|
|Профессиональный (многоголосый, закадровый), Премьер-Видео Фильм|
|Авторский (одноголосый, закадровый), А. Михалев|
Субтитры: Русские, английские
Режиссер: Роберт Земекис / Robert Zemeckis
В ролях: Мэрил Стрип (Madeline Ashton), Брюс Уиллис (Ernest Menville), Голди Хоун (Helen Sharp), Изабелла Росселлини (Lisle Von Rhuman), Иан Огилви (Chagall), Адам Сторке (Dakota), Нэнси Фиш (Rose), Алайна Рид Холл (Psychologist), Мишель Джонсон (Anna), Мэри Эллен Трейнор (Vivian Adams), Уильям Френкфазер (Mr. Franklin), Джон Ингл (Eulogist)
Описание:
Эликсир вечной молодости! Сколько женщин мечтают о нем! О нем мечтали и бродвейская звезда Мэдлин Эштон, и Хелен Шарп, у которой эта коварная Мэдлин отбила жениха Эрнеста Мэнвилла, гениального врача-специалиста по пластическим операциям.
Прошли годы, и изрядно полинявшие и уставшие друг от друга дамочки, обращаются за чудотворным снадобьем к некоей колдунье. Итак, эликсир выпит, кожа посвежела, груди подтянулись, но скоро качество лекарства будет проверено... смертью.
Рейтинг


MPAA: PG-13 - Детям до 13 лет просмотр не желателен

Качество: BD Remux
Формат: MKV
Видео кодек: AVC
Аудио кодек: AC3, DTS-HD
Видео: AVC, 24943 Kбит/с, 1920x1080, 23,976 fps
Аудио №1: русский / АС3, 2 ch, 192 Кбит/с, 48 kHz |НТВ+|
Аудио №2: русский / АС3, 2 ch, 192 Кбит/с, 48 kHz
Аудио №3: русский / АС3, 2 ch, 192 Кбит/с, 48 kHz |ОРТ|
Аудио №4: русский / АС3, 2 ch, 192 Кбит/с, 48 kHz |Премьер-Видео Фильм|
Аудио №4: русский / АС3, 2 ch, 192 Кбит/с, 48 kHz |А. Михалев|
Аудио №6: английский / DTS-HD MA, 2 ch, 1802 Кбит/с, 48 kHz (Core: 1509 Кбит/сек,)


Оформление: Messa-fan
Общее
Уникальный идентификатор : 201465066568241676753536390772160011982 (0x9790C2AC88F2A5B3AE00F375C8091ECE)
Полное имя : Death.Becomes.Her.1992.BDRemux.(1080p)-MediaClub.mkv
Формат : Matroska
Версия формата : Version 4 / Version 2
Размер файла : 20,0 Гбайт
Продолжительность : 1 ч. 43 м.
Режим общего битрейта : Переменный
Общий поток : 27,7 Мбит/сек
Название фильма : -=MediaClub-kaspr=-
Дата кодирования : UTC 2014-01-24 05:45:35
Программа кодирования : mkvmerge v6.1.0 ('Old Devil') built on Mar 4 2013 09:10:42
Библиотека кодирования : libebml v1.3.0 + libmatroska v1.4.0

Видео
Идентификатор : 1
Формат : AVC
Формат/Информация : Advanced Video Codec
Профиль формата : High@L4.1
Параметр CABAC формата : Да
Параметр ReFrames формата : 4 кадра
Идентификатор кодека : V_MPEG4/ISO/AVC
Продолжительность : 1 ч. 43 м.
Вид битрейта : Переменный
Максимальный битрейт : 35,0 Мбит/сек
Ширина : 1920 пикселей
Высота : 1080 пикселей
Соотношение сторон : 16:9
Режим частоты кадров : Постоянный
Частота кадров : 23,976 кадра/сек
Стандарт вещания : NTSC
Цветовое пространство : YUV
Субдискретизация насыщенности : 4:2:0
Битовая глубина : 8 бит
Тип развёртки : Прогрессивная
Заголовок : -=MediaClub-kaspr=-
Default : Да
Forced : Нет
Основные цвета : BT.709
Характеристики трансфера : BT.709
Коэффициенты матрицы : BT.709

Аудио #1
Идентификатор : 2
Формат : AC-3
Формат/Информация : Audio Coding 3
Расширение режима : CM (complete main)
Параметр Endianness формата : Big
Идентификатор кодека : A_AC3
Продолжительность : 1 ч. 43 м.
Вид битрейта : Постоянный
Битрейт : 192 Кбит/сек
Каналы : 2 канала
Расположение каналов : Front: L R
Частота : 48,0 КГц
Битовая глубина : 16 бит
Метод сжатия : С потерями
Размер потока : 142 Мбайт (1%)
Заголовок : НТВ+
Язык : Russian
Default : Да
Forced : Нет

Аудио #2
Идентификатор : 3
Формат : AC-3
Формат/Информация : Audio Coding 3
Расширение режима : CM (complete main)
Параметр Endianness формата : Big
Идентификатор кодека : A_AC3
Продолжительность : 1 ч. 43 м.
Вид битрейта : Постоянный
Битрейт : 192 Кбит/сек
Каналы : 2 канала
Расположение каналов : Front: L R
Частота : 48,0 КГц
Битовая глубина : 16 бит
Метод сжатия : С потерями
Размер потока : 142 Мбайт (1%)
Заголовок : Неизвестен
Язык : Russian
Default : Нет
Forced : Нет

Аудио #3
Идентификатор : 4
Формат : AC-3
Формат/Информация : Audio Coding 3
Расширение режима : CM (complete main)
Параметр Endianness формата : Big
Идентификатор кодека : A_AC3
Продолжительность : 1 ч. 43 м.
Вид битрейта : Постоянный
Битрейт : 192 Кбит/сек
Каналы : 2 канала
Расположение каналов : Front: L R
Частота : 48,0 КГц
Битовая глубина : 16 бит
Метод сжатия : С потерями
Размер потока : 142 Мбайт (1%)
Заголовок : ОРТ
Язык : Russian
Default : Нет
Forced : Нет

Аудио #4
Идентификатор : 5
Формат : AC-3
Формат/Информация : Audio Coding 3
Расширение режима : CM (complete main)
Параметр Endianness формата : Big
Идентификатор кодека : A_AC3
Продолжительность : 1 ч. 43 м.
Вид битрейта : Постоянный
Битрейт : 192 Кбит/сек
Каналы : 2 канала
Расположение каналов : Front: L R
Частота : 48,0 КГц
Битовая глубина : 16 бит
Метод сжатия : С потерями
Размер потока : 142 Мбайт (1%)
Заголовок : Премьер-Видео Фильм
Язык : Russian
Default : Нет
Forced : Нет

Аудио #5
Идентификатор : 6
Формат : AC-3
Формат/Информация : Audio Coding 3
Расширение режима : CM (complete main)
Параметр Endianness формата : Big
Идентификатор кодека : A_AC3
Продолжительность : 1 ч. 43 м.
Вид битрейта : Постоянный
Битрейт : 192 Кбит/сек
Каналы : 2 канала
Расположение каналов : Front: L R
Частота : 48,0 КГц
Битовая глубина : 16 бит
Метод сжатия : С потерями
Размер потока : 142 Мбайт (1%)
Заголовок : Михалёв
Язык : Russian
Default : Нет
Forced : Нет

Аудио #6
Идентификатор : 7
Формат : DTS
Формат/Информация : Digital Theater Systems
Профиль формата : MA / Core
Режим : 16
Параметр Endianness формата : Big
Идентификатор кодека : A_DTS
Продолжительность : 1 ч. 43 м.
Вид битрейта : Переменный
Битрейт : Неизвестно / 1509 Кбит/сек
Каналы : 2 канала
Расположение каналов : Front: L R
Частота : 48,0 КГц
Битовая глубина : 16 бит
Метод сжатия : Без потерь / Lossy
Язык : English
Default : Нет
Forced : Нет

Текст #1
Идентификатор : 8
Формат : UTF-8
Идентификатор кодека : S_TEXT/UTF8
Идентификатор кодека/Информация : UTF-8 Plain Text
Язык : Russian
Default : Нет
Forced : Нет

Текст #2
Идентификатор : 9
Формат : UTF-8
Идентификатор кодека : S_TEXT/UTF8
Идентификатор кодека/Информация : UTF-8 Plain Text
Язык : English
Default : Нет
Forced : Нет

Меню
00:00:00.000 : en:Chapter 01
00:05:04.512 : en:Chapter 02
00:09:01.540 : en:Chapter 03
00:12:35.379 : en:Chapter 04
00:20:40.739 : en:Chapter 05
00:26:46.771 : en:Chapter 06
00:30:20.109 : en:Chapter 07
00:47:09.243 : en:Chapter 08
00:55:55.268 : en:Chapter 09
01:05:51.489 : en:Chapter 10
01:09:55.858 : en:Chapter 11
01:15:40.953 : en:Chapter 12
01:25:01.888 : en:Chapter 13
01:32:54.402 : en:Chapter 14
01:36:13.225 : en:Chapter 15
01:37:35.599 : en:Chapter 16

  • Штамп «дело закрыто» и мозг в банке с этикеткой «аномальный» в одной из сцен, изображающих планируемое убийство - отсылка к оригинальному «Франкенштейну».
  • Чтобы показать, как после выпитого зелья поднимаются и становятся упругими груди Мерил Стрип, был разработан специальный пневматический бюстгальтер, однако должного эффекта он не дал, поэтому за спиной Стрип, вне поля зрения камеры, стояла гримерша и поднимала груди Стрип вручную.
  • Одна из сцен с Хелен в психиатрической клинике - прямая цитата сцены из «Полета над гнездом кукушки» (1975) Милоша Формана.
  • Хелен выпила зелье 26 октября 1985 года - это дата «настоящего» из другого фильма Земекиса «Назад в будущее».
  • pb.wtf



    Скачать Смерть ей к лицу через торрент http://i6.imageban.ru/out/2014/01/24/735825f13774a5c80de8b10a62e6d382.jpg Скачать фильм Смерть ей к лицу через торрент бесплантно в хорошем качестве Описание: Эликсир вечной молодости! Сколько женщин мечтают о нем! О нем мечтали и бродвейская звезда Мэдлин Эштон, и Хелен Шарп, у которой ... 10 10 4
    Info! Золотая раздача, скачанное не засчитывается.
    Торрент: Зарегистрирован [2014-01-24 13:20] · скачан: 21 раз
    Статус: √ проверено
    Размер: 20.03 GB
    Как cкачать? Как скачать Смерть ей к лицу через торрент | qTorrent

    28-11-2019 20:33  

    Отключить всю рекламу на сайте

    24-01-2014 15:53 Смерть ей к лицу Скачать торрент  

    Изумительный фильм.pb.wtf



      Дорогой пользователь! Огромная просьба, поблагодарите релизера, оцените раздачу и оставьте свои комментарий, если Вы скачали Смерть ей к лицу через торрент бесплатно! Внесите свою лепту в развитие PiratBit!
      Комментировать посты могут только пользователи прошедшие не сложную регистрацию
      Показать сообщения:    

      Смерть ей к лицу через торрент
      Скачать бесплатно Смерть ей к лицу
      Смерть ей к лицу скачать торрент
      Смерть ей к лицу смотреть онлайн
      Cкачать фильм Смерть ей к лицу бесплатно
      Смерть ей к лицу скачать торрент в хорошем качестве
      Смерть ей к лицу смотреть онлайн бесплатно в хорошем качестве


      Вы не можете начинать темы
      Вы не можете отвечать на сообщения
      Вы не можете редактировать свои сообщения
      Вы не можете удалять свои сообщения
      Вы не можете голосовать в опросах
      Вы не можете прикреплять файлы к сообщениям
      Вы можете скачивать файлы