Ссылка на приватное зеркало нашего сайта всего за 1$. Внимание количество ограничено!!!

2 сезон

iTunes

1 сезон

1

iTunes

iTunes

iTunes

1 сезон

RePack

30

ИГРА 18+

pack

ВАЖНО

!!Акция!!

Alien_RageХит недели

RePack

MK11
pack

Забери бонус

RePack

jed

!!Акция!!

Alien_Rage

RePack

fifa19

RePack

Assassins Creed: Odyssey

RePack

NEED FOR SPEED™ PAYBACK

4 сезон

9 сезон

Бесстыжие 9 сезон

Все сериалы

все сериалы на PB.wtf

RePack

FAR CRY 5
  

Несносный дед / Jackass Presents: Bad Grandpa (Джефф Треймейн) [2013 г.,комедия, BDRip 1080p [CHD] MVO [BaibaKo] [Unrated Cut] pb.wtf

Несносный дед через торрент pb.wtf

Размер: 11.7 GB | Добавлен: 6 лет 9 мес. назад | Торрент скачан:734 раза
Скачать  

24-01-2014 13:43 Несносный дед Скачать торрент  



Несносный дед / Jackass Presents: Bad Grandpa


  • Год выпуска:2013
  • Страна:США
  • Жанр:комедия
  • Продолжительность: 01:42:08
  • Перевод:Многоголосый закадровый, профессиональный [BaibaKo]

  • Субтитры: Нет
    • Режиссер:Джефф Треймейн / Jeff Tremaine
    • Сценарий: Джонни Ноксвил / Johnny Knoxville, Джефф Треймейн / Jeff Tremaine, Факс Бар / Fax Bahr, Спайк Джонс / Spike Jonze, Адам Смолл / Adam Small
    • Продюсер: Дерек Фреда / Derek Freda, Спайк Джонс / Spike Jonze, Джонни Ноксвил / Johnny Knoxville, Джефф Треймейн / Jeff Tremaine

  • В ролях:Джонни Ноксвил (Irving Zisman), Джексон Николл (Billy), Грег Харрис (Chuck), Джорджина Кэйтс (Kimmie), Камбер Хейлик (Doctor), Джилл Килл (Pageant Reporter), Мэдисон Дэвис (Juggalo Girl), Джордж Фонан (Juggalo Guy), Грэси Мерседес (ведущая), Мэрилинн Эллейн (Receptionist), Джек Полик (Funeral Worker), Спайк Джонс (Gloria)
    • Описание:
      86-летний старикан по имени Ирвинг Зисман путешествует по Америке с необычным компаньоном - восьмилетним «внуком» Билли.
      По дороге заводной дедушка знакомит впечатлительного Билли с людьми, местами и ситуациями, которые вряд ли укладываются в рамки привычных представлений о воспитании. Парочка столкнется со стриптизерами, разъяренными участниками помпезного детского конкурса красоты и их не менее злыми мамашами, скорбящими посетителями панихиды, завсегдатаями бара для байкеров и другими ничего не подозревающими гражданами США.
    Примечание:
    Присутствует ненормативная лексика.
    Расширенная версия длиннее на 10 минут. Полный перевод.


    Мировая премьера:23 октября 2013 Бюджет:$15 000 000
    • Качество:BDRip 1080p [CHD]
    • Формат:MKV
    • Видео кодек: AVC
    • Аудио кодек:AC3
    • Видео: AVC, 1920x1080 (16:9), 23.976 fps, 16.0 Mbps (0.322 bit/pixel)
    • Аудио: AC-3, 48.0 KHz, 6 ch, 384 Kbps, CBR (Russian)


    Общее
    Уникальный идентификатор : 250894666692115053618324104439213008766 (0xBCC08E1E1C1F7095BC82644752F3277E)
    Полное имя : D:ТорентыNesnosnyj.ded.2013.P.UNRATED.BDRip.1080p._Piratbit.net .mkv
    Формат : Matroska
    Версия формата : Version 4 / Version 2
    Размер файла : 11,7 Гбайт
    Продолжительность : 1 ч. 42 м.
    Общий поток : 16,4 Мбит/сек
    Название фильма : Release for Piratbit.net_R.G. HD-Films
    Дата кодирования : UTC 2014-01-24 13:16:25
    Программа кодирования : mkvmerge v6.4.1 ('Omega Point') built on Sep 16 2013 22:05:10
    Библиотека кодирования : libebml v1.3.0 + libmatroska v1.4.1

    Видео
    Идентификатор : 1
    Формат : AVC
    Формат/Информация : Advanced Video Codec
    Профиль формата : High@L4.1
    Параметр CABAC формата : Да
    Параметр ReFrames формата : 4 кадра
    Идентификатор кодека : V_MPEG4/ISO/AVC
    Продолжительность : 1 ч. 42 м.
    Битрейт : 16,0 Мбит/сек
    Ширина : 1920 пикселей
    Высота : 1080 пикселей
    Соотношение сторон : 16:9
    Режим частоты кадров : Постоянный
    Частота кадров : 23,976 кадра/сек
    Цветовое пространство : YUV
    Субдискретизация насыщенности : 4:2:0
    Битовая глубина : 8 бит
    Тип развёртки : Прогрессивная
    Бит/(Пиксели*Кадры) : 0.322
    Размер потока : 11,2 Гбайт (96%)
    Заголовок : Release for Piratbit.net_R.G. HD-Films
    Библиотека кодирования : x264 core 138 r2356 a1d3d17
    Настройки программы : cabac=1 / ref=4 / deblock=1:-3:-3 / analyse=0x3:0x113 / me=umh / subme=10 / psy=1 / psy_rd=1.00:0.05 / mixed_ref=1 / me_range=32 / chroma_me=1 / trellis=2 / 8x8dct=1 / cqm=0 / deadzone=21,11 / fast_pskip=0 / chroma_qp_offset=-2 / threads=18 / lookahead_threads=1 / sliced_threads=0 / nr=0 / decimate=1 / interlaced=0 / bluray_compat=0 / constrained_intra=0 / bframes=6 / b_pyramid=2 / b_adapt=2 / b_bias=0 / direct=3 / weightb=1 / open_gop=0 / weightp=2 / keyint=250 / keyint_min=23 / scenecut=40 / intra_refresh=0 / rc=2pass / mbtree=0 / bitrate=16000 / ratetol=1.0 / qcomp=0.70 / qpmin=0 / qpmax=69 / qpstep=4 / cplxblur=20.0 / qblur=0.5 / ip_ratio=1.40 / pb_ratio=1.30 / aq=2:0.90
    Язык : English
    Default : Нет
    Forced : Нет

    Аудио
    Идентификатор : 2
    Формат : AC-3
    Формат/Информация : Audio Coding 3
    Расширение режима : CM (complete main)
    Параметр Endianness формата : Big
    Идентификатор кодека : A_AC3
    Продолжительность : 1 ч. 42 м.
    Вид битрейта : Постоянный
    Битрейт : 384 Кбит/сек
    Каналы : 6 каналов
    Расположение каналов : Front: L C R, Side: L R, LFE
    Частота : 48,0 КГц
    Битовая глубина : 16 бит
    Метод сжатия : С потерями
    Размер потока : 281 Мбайт (2%)
    Заголовок : AC3.384Kbps (6ch) Russian (MVO)
    Язык : Russian
    Default : Да
    Forced : Нет[/code]

    Скриншоты:


    Релиз подготовлен специально для Piratbit.net. Синхронизация звука и видео by Vetal

    Трейлеры к фильмам [2014]
    pb.wtf



  • Скачать Несносный дед через торрент http://pic.kartinco.top/images/6/fzj1p.jpg Скачать фильм Несносный дед через торрент бесплантно в хорошем качестве Описание:86-летний старикан по имени Ирвинг Зисман путешествует по Америке с необычным компаньоном - восьмилетним «внуком» Билли.По дороге ... 9.4 10 18
    Info! Золотая раздача, скачанное не засчитывается.
    Торрент: Зарегистрирован [2014-01-24 13:43] · скачан: 734 раз
    Статус: √ проверено
    Размер: 11.7 GB
    Как cкачать? Как скачать Несносный дед через торрент | qTorrent

    % Раздел Тема Автор DL S | L
    Фильмы (DVD фильмы) [ 6.61 GB ] Несносный дед / Jackass Presents: Bad Grandpa [2013 DVD9] R5 voovaz Скачать
    1 | 0
    Фильмы 2013 [DVDrip, WEB-DLRip, HDrip] [ 2.91 GB ] Несносный дед / Jackass Presents: Bad Grandpa [2013 BDRip-AVC] [Расширенная версия] DUB potroks Скачать
    1 | 0
    Фильмы 2013 [DVDrip, WEB-DLRip, HDrip] [ 2.92 GB ] Несносный дед / Jackass Presents: Bad Grandpa [2013 BDRip-AVC] [Театральная версия] DUB potroks Скачать
    1 | 0
    Фильмы 2013 [DVDrip, WEB-DLRip, HDrip] [ 1.46 GB ] Несносный дед / Jackass Presents: Bad Grandpa [2013 HDRip [ - ] [UNRATED] Ворон Скачать
    1 | 0
    Фильмы 2013 [DVDrip, WEB-DLRip, HDrip] [ 1.45 GB ] Несносный дед / Jackass Presents: Bad Grandpa [2013 BDRip [ - ] Театральная версия / Theatrical Cut Ворон Скачать
    1 | 0
    Фильмы [HD 720p, 1080p] (Хороший звук DUB, MVO) [ 7.76 GB ] Чудаки: Несносный дед / Jackass Presents: Bad Grandpa [2013 BDRip 1080p ]Театральная версия / Theatrical Cut Ворон Скачать
    1 | 0
    Фильмы 2013 [DVDrip, WEB-DLRip, HDrip] [ 1.46 GB ] Чудаки: Несносный дед / Jackass Presents: Bad Grandpa [2013 HDRip ]Театральная версия Tipok_dv Скачать
    1 | 0

    28-11-2019 20:33  

    Отключить всю рекламу на сайте

    28-01-2014 10:51 Несносный дед Скачать торрент  

    Джони молодцом,Особено убойная картина была это Джони с Шоном - в фильме "муви43" с переводом Пучкова)))) ппц как мы на работе угорали -Липриконы + Горшок золота + Фею сосущия Писку зазолотые монетки :D/
    и цитата .. от леприкона "я твою Зал*пу натяну на гидранский Шланг)))))
    Вообще Респекс" Джонy Чудакy"pb.wtf



      Дорогой пользователь! Огромная просьба, поблагодарите релизера, оцените раздачу и оставьте свои комментарий, если Вы скачали Несносный дед через торрент бесплатно! Внесите свою лепту в развитие PiratBit!
      Комментировать посты могут только пользователи прошедшие не сложную регистрацию
      Показать сообщения:    

      Несносный дед через торрент
      Скачать бесплатно Несносный дед
      Несносный дед скачать торрент
      Несносный дед смотреть онлайн
      Cкачать фильм Несносный дед бесплатно
      Несносный дед скачать торрент в хорошем качестве
      Несносный дед смотреть онлайн бесплатно в хорошем качестве


      Вы не можете начинать темы
      Вы не можете отвечать на сообщения
      Вы не можете редактировать свои сообщения
      Вы не можете удалять свои сообщения
      Вы не можете голосовать в опросах
      Вы не можете прикреплять файлы к сообщениям
      Вы можете скачивать файлы