Ссылка на приватное зеркало нашего сайта всего за 1$. Внимание количество ограничено!!!

2 сезон

iTunes

1 сезон

1

iTunes

iTunes

iTunes

1 сезон

RePack

30

ИГРА 18+

pack

ВАЖНО

!!Акция!!

Alien_RageХит недели

RePack

MK11
pack

Забери бонус

RePack

jed

!!Акция!!

Alien_Rage

RePack

fifa19

RePack

Assassins Creed: Odyssey

RePack

NEED FOR SPEED™ PAYBACK

4 сезон

9 сезон

Бесстыжие 9 сезон

Все сериалы

все сериалы на PB.wtf

RePack

FAR CRY 5
  

Она не могла иначе... /4 серии из 4/ (Александр Ефремов) [2013 г., мелодрама, биография, HDTVRip] pb.wtf

Она не могла иначе... через торрент pb.wtf

Размер: 5.47 GB | Добавлен: 6 лет 9 мес. назад | Торрент скачан:151 раз
Скачать  

24-01-2014 14:38 Она не могла иначе... Скачать торрент  

Она не могла иначе

Год выпуска: 2013
Страна: Беларусь, Россия
Выпущено: ООО "Юникс", продюсерская Компания"Медиапрофсоюз"
Жанр: Мелодрама, Биография
Продолжительность: 4 х ~ 01:35:00
Язык: Русский

Режиссер: Александр Ефремов
Продюссер: Александр Кушаев, Владимир Игнатьев, Юлия Ерешко
Премьера в мире: 21 октября 2013



В ролях: Ольга Фадеева, Владислав Ветров, Сергей Астахов, Екатерина Вуличенко, Сергей Журавель, Игорь Подливальчев, Марина Денисова, Полина Стефанович, Светлана Боровская, Иван Щетко, Валентина Лосовская, Павел Южаков-Харланчук, Анна Каменкова, Владислав Шестак, Роман Подоляко, Борис Абаров, Анастасия Зубок, Дарья Бранкевич, Вероника Пляшкевич, Лариса Маршалова, Вячеслав Павлють, Александр Ткаченок, Светлана Никифорова, Елена Владомирская-Пастревич, Виталий Новиков (II), Сергей Новицкий, Татьяна Калих, Руслан Чернецкий

Описание: Талантливая певица Алевтина Толкачёва начинает своё восхождение к большой сцене в 1966 году, еще будучи студенткой Института культуры. В это время она познакомилась со своим будущим мужем, руководителем популярного джазового оркестра. Но личное счастье начинающей певицы, увы, не будет долгим...

Качество: HDTVRip
Формат: AVI
Видео кодек: XviD
Аудио кодек: AC3
Видео: XviD, ~1 879 Kbps, 720x400, 25.000 fps, Bits/(Pixel*Frame): 0.261
Аудио: AC3, 2 ch, 192 Kbps, 48.0 KHz
General
Complete name : /etc/seedbox/home/kep/data/Ona.ne.mogla.inache.2013.HDTVRip/Ona.ne.mogla.inache.01.2013.HDTVRip.Generalfilm.avi
Format : AVI
Format/Info : Audio Video Interleave
File size : 1.37 GiB
Duration : 1h 34mn
Overall bit rate : 2 080 Kbps
Writing application : VirtualDubMod 1.5.10.3 | www.virtualdub-fr.org || (build 2550/release)
Writing library : VirtualDubMod build 2550/release

Video
ID : 0
Format : MPEG-4 Visual
Format profile : Advanced Simple@L5
Format settings, BVOP : 2
Format settings, QPel : No
Format settings, GMC : No warppoints
Format settings, Matrix : Default (H.263)
Codec ID : XVID
Codec ID/Hint : XviD
Duration : 1h 34mn
Bit rate : 1 879 Kbps
Width : 720 pixels
Height : 400 pixels
Display aspect ratio : 16:9
Frame rate : 25.000 fps
Color space : YUV
Chroma subsampling : 4:2:0
Bit depth : 8 bits
Scan type : Progressive
Compression mode : Lossy
Bits/(Pixel*Frame) : 0.261
Stream size : 1.24 GiB (90%)
Writing library : XviD 1.2.1 (UTC 2008-12-04)

Audio
ID : 1
Format : AC-3
Format/Info : Audio Coding 3
Mode extension : CM (complete main)
Format settings, Endianness : Big
Codec ID : 2000
Duration : 1h 34mn
Bit rate mode : Constant
Bit rate : 192 Kbps
Channel count : 2 channels
Channel positions : Front: L R
Sampling rate : 48.0 KHz
Bit depth : 16 bits
Compression mode : Lossy
Stream size : 129 MiB (9%)
Alignment : Split accross interleaves
Interleave, duration : 40 ms (1.00 video frame)
Interleave, preload duration : 500 ms
pb.wtf



Скачать Она не могла иначе... через торрент http://i4.imageban.ru/out/2014/01/24/cf52a1e41ce45e82b4f1d5fd032f9944.png Скачать фильм Она не могла иначе... через торрент бесплантно в хорошем качестве Описание: Талантливая певица Алевтина Толкачёва начинает своё восхождение к большой сцене в 1966 году, еще будучи студенткой Института ... 9.8 10 6
Info! Золотая раздача, скачанное не засчитывается.
Торрент: Зарегистрирован [2014-01-24 14:38] · скачан: 151 раз
Статус: √ проверено
Размер: 5.47 GB
Как cкачать? Как скачать Она не могла иначе... через торрент | qTorrent

28-11-2019 20:33  

Отключить всю рекламу на сайте

    Дорогой пользователь! Огромная просьба, поблагодарите релизера, оцените раздачу и оставьте свои комментарий, если Вы скачали Она не могла иначе... через торрент бесплатно! Внесите свою лепту в развитие PiratBit!
    Комментировать посты могут только пользователи прошедшие не сложную регистрацию
    Показать сообщения:    

    Она не могла иначе... через торрент
    Скачать бесплатно Она не могла иначе...
    Она не могла иначе... скачать торрент
    Она не могла иначе... смотреть онлайн
    Cкачать фильм Она не могла иначе... бесплатно
    Она не могла иначе... скачать торрент в хорошем качестве
    Она не могла иначе... смотреть онлайн бесплатно в хорошем качестве


    Вы не можете начинать темы
    Вы не можете отвечать на сообщения
    Вы не можете редактировать свои сообщения
    Вы не можете удалять свои сообщения
    Вы не можете голосовать в опросах
    Вы не можете прикреплять файлы к сообщениям
    Вы можете скачивать файлы