Ссылка на приватное зеркало нашего сайта всего за 1$. Внимание количество ограничено!!!

2 сезон

iTunes

1 сезон

1

iTunes

iTunes

iTunes

1 сезон

RePack

30

ИГРА 18+

pack

ВАЖНО

!!Акция!!

Alien_RageХит недели

RePack

MK11
pack

Забери бонус

RePack

jed

!!Акция!!

Alien_Rage

RePack

fifa19

RePack

Assassins Creed: Odyssey

RePack

NEED FOR SPEED™ PAYBACK

4 сезон

9 сезон

Бесстыжие 9 сезон

Все сериалы

все сериалы на PB.wtf

RePack

FAR CRY 5
  

Объятия вампира / Embrace Of The Vampire (Карл Бессай / Carl Bessai) [2013, Канада, Ужасы, HDRip] Одноголосый закадровый Barin101 pb.wtf

Объятия вампира через торрент pb.wtf

Размер: 1.43 GB | Добавлен: 6 лет 9 мес. назад | Торрент скачан:256 раз
Скачать  

24-01-2014 23:32 Объятия вампира Скачать торрент  

Объятия вампира / Embrace Of The Vampire

  • Год выпуска: 2013
  • Страна: Канада
  • Жанр: Ужасы
  • Продолжительность: 01:31:18
  • Перевод: Одноголосый закадровый Barin101
  • Cубтитры: русские, английские [отдельный файл ]
  • Оригинальная аудиодорожка: английский


    Шэрон Хинендэйл, Каньехтио Хорн, С.С. Шеффилд, Челси Рейст, Виктор Уэбстер, Роберт Молони, Райан Кеннеди, Киган Коннор, Трейси Оливия Ченг, Клер Смитис

    Режиссер: Карл Бессай / Carl Bessai


    Несколько сотен лет назад двое незнакомцев провели над девушкой странный ритуал: влили под кожу кровь вампира. После этого их дом атаковала разъярённая вампирша. Это была присказка. А теперь будет сказка.
    Наше время. В колледж в небольшом городке приезжает учиться Шарлотта, с виду обычная девушка. Но у неё странная болезнь крови. Может, поэтому её мучают видения и странные ночные кошмары, после которых она просыпается не в своей постели, а где-нибудь на улице...





  • Качество видео: HDRip
  • Формат видео: AVI
    Видео кодек:XviD
    Аудио кодек: AC3

  • Видео: 720x400 (1.80:1), 1589 kbps , 0.23 bit/pixel
  • Аудио 1 РУС : ~192.00 kbps, 2 ch, 44.100 kHz,
  • Аудио 2 ENG: ~448 kbps , 3/2 (L,C,R,l,r) + LFE ch, 48 kHz
  • Формат субтитров: softsub (SRT)

    Общее
    Полное имя Embrace Of The Vampire 2013 (barin101)Embrace Of The Vampire 2013_Barin101.avi
    Формат : AVI
    Формат/Информация : Audio Video Interleave
    Размер файла : 1,43 Гбайт
    Продолжительность : 1 ч. 31 м.
    Общий поток : 2244 Кбит/сек
    Программа кодирования : VirtualDubMod 1.5.10.2 (build 2540/release)
    Библиотека кодирования : VirtualDubMod build 2540/release

    Видео
    Идентификатор : 0
    Формат : MPEG-4 Visual
    Профиль формата : Simple@L3
    Параметр BVOP формата : Нет
    Параметр QPel формата : Нет
    Параметр GMC формата : Без точки перехода
    Параметр матрицы формата : Default (H.263)
    Идентификатор кодека : XVID
    Идентификатор кодека/Подсказка : XviD
    Продолжительность : 1 ч. 31 м.
    Битрейт : 1590 Кбит/сек
    Ширина : 720 пикселей
    Высота : 400 пикселей
    Соотношение сторон : 16:9
    Частота кадров : 23,976 кадра/сек
    Цветовое пространство : YUV
    Субдискретизация насыщенности : 4:2:0
    Битовая глубина : 8 бит
    Тип развёртки : Прогрессивная
    Метод сжатия : С потерями
    Бит/(Пиксели*Кадры) : 0.230
    Размер потока : 1,01 Гбайт (71%)
    Библиотека кодирования : XviD 1.1.2 (UTC 2006-11-01)

    Аудио #1
    Идентификатор : 1
    Формат : MPEG Audio
    Версия формата : Version 1
    Профиль формата : Layer 3
    Идентификатор кодека : 55
    Идентификатор кодека/Подсказка : MP3
    Продолжительность : 1 ч. 31 м.
    Вид битрейта : Постоянный
    Битрейт : 192 Кбит/сек
    Каналы : 2 канала
    Частота : 44,1 КГц
    Метод сжатия : С потерями
    Размер потока : 125 Мбайт (9%)
    Выравнивание : Разделение по промежуткам
    Продолжительность промежутка : 42 мс. (1,00 видеокадр)
    Время предзагрузки промежутка : 500 мс.

    Аудио #2
    Идентификатор : 2
    Формат : AC-3
    Формат/Информация : Audio Coding 3
    Расширение режима : CM (complete main)
    Параметр Endianness формата : Big
    Идентификатор кодека : 2000
    Продолжительность : 1 ч. 31 м.
    Вид битрейта : Постоянный
    Битрейт : 448 Кбит/сек
    Каналы : 6 каналов
    Расположение каналов : Front: L C R, Side: L R, LFE
    Частота : 48,0 КГц
    Битовая глубина : 16 бит
    Метод сжатия : С потерями
    Размер потока : 293 Мбайт (20%)
    Выравнивание : Разделение по промежуткам
    Продолжительность промежутка : 42 мс. (1,00 видеокадр)
    Время предзагрузки промежутка : 500 мс.


    pb.wtf



  • Скачать Объятия вампира через торрент http://i60.fastpic.ru/big/2014/0125/9d/d0f1fc6057ff4ec8e2f0c2a7ea0f989d.png Скачать фильм Объятия вампира через торрент бесплантно в хорошем качестве Год выпуска: 2013 Страна: КанадаЖанр: УжасыПродолжительность: 01:31:18Перевод: Одноголосый Barin101 ... 9.1 10 12
    Info! Золотая раздача, скачанное не засчитывается.
    Торрент: Зарегистрирован [2014-01-24 23:32] · скачан: 256 раз
    Статус: T временная
    Размер: 1.43 GB
    Как cкачать? Как скачать Объятия вампира через торрент | qTorrent



    Последний раз редактировалось: читерас (2014-01-25 09:42), всего редактировалось 6 раз(а)

    28-11-2019 20:33  

    Отключить всю рекламу на сайте

    24-01-2014 23:51 Объятия вампира Скачать торрент  

    RedFaction писал(а):

    Cубтитры: русские, английские

    Цитата:

    8. Субтитры

    8.1 Если имеются. Следует указать язык и вид субтитров: вшитые или отдельный файл.

    http://pb.wtf/topic/58128/

    Цитата:

    Качество:
    Формат:
    Видео кодек:
    Аудио кодек:

    Цитата:

    1.1 Общий вид:

    Название на русском / Название на оригинале (режиссер) [год, жанр, качество, перевод]

    pb.wtf





    Последний раз редактировалось: Ворон (2014-01-25 09:47), всего редактировалось 1 раз

    25-01-2014 02:34 Объятия вампира Скачать торрент  

    hsshshshhsshshpb.wtf



      Дорогой пользователь! Огромная просьба, поблагодарите релизера, оцените раздачу и оставьте свои комментарий, если Вы скачали Объятия вампира через торрент бесплатно! Внесите свою лепту в развитие PiratBit!
      Комментировать посты могут только пользователи прошедшие не сложную регистрацию
      Показать сообщения:    

      Объятия вампира через торрент
      Скачать бесплатно Объятия вампира
      Объятия вампира скачать торрент
      Объятия вампира смотреть онлайн
      Cкачать фильм Объятия вампира бесплатно
      Объятия вампира скачать торрент в хорошем качестве
      Объятия вампира смотреть онлайн бесплатно в хорошем качестве


      Вы не можете начинать темы
      Вы не можете отвечать на сообщения
      Вы не можете редактировать свои сообщения
      Вы не можете удалять свои сообщения
      Вы не можете голосовать в опросах
      Вы не можете прикреплять файлы к сообщениям
      Вы можете скачивать файлы