Всегда рабочее зеркало просто перед .vidak.icu напиши любое слово или цифру, Пример http://29p.vidak.icu

>

7.4

iTunes

7.4

2 сезон

9.4

1 сезон

1

7.4

2 сезон

7.2

iTunes

6.0

MVO

13

6.1

iTunes

8.3

Пиратка

30

ULTIMATE

pack

9.9

Лицензия

ВАЖНО

ИГРА 18+

pack

7.3

RePack

MK11

7.7

RePack

jed

7.8

RePack

fifa19

8.5

RePack

RDR2

RePack

NEED FOR SPEED™ PAYBACK

1 сезон

9 сезон

Бесстыжие 9 сезон

Все сериалы

все сериалы на PB.wtf

RePack

FAR CRY 5

Anonymous, доброй ночи, мы катастрофически не успеваем собрать деньги на оплату серверов, помогите нам пожалуйста 5,10,15р., для нас важна любая помощь . В качестве благодарности мы отключим Вам всю рекламу на сайте (укажите свой ник в строку Ваше имя)!

×
  
Magnet ссылка

Альцест на велосипеде / Alceste à bicyclette (Филипп Ле Гюэ) [2013 г., драма, комедия, HDRip, Авторский (одноголосое)(М. Чадов)] pb.wtf

Альцест на велосипеде через торрент pb.wtf

Размер: 1.46 GB | Добавлен: 7 лет 11 мес. назад | Торрент скачан:75 раз
Смотреть онлайн Альцест на велосипеде | Скачать    Ребята, помогите собрать деньги на оплату серверов!!!

24-01-2014 23:38 Альцест на велосипеде Скачать торрент  

Альцест на велосипеде / Alceste à bicyclette

Год выпуска: 2013
Страна: Франция
Выпущено: Les Films des Tournelles, Pathé, Appaloosa Développement
Жанр: драма, комедия
Продолжительность: 01:45:16
Перевод: Авторский (одноголосое)(М. Чадов)

Режиссер: Филипп Ле Гюэ
Продюссер: Энн-Доминик Туссэн, Флориан Женете-Морель, Ромейн Ле Гранд
Сценарий: Филипп Ле Гюэ, Эммануэль Каррере, Фабрис Лукини
Премьера в мире: 16 января 2013

IMDB 6.70 (752)


В ролях: Фабрис Лукини, Ламбер Вильсон, Майя Санса, Камила Джепи, Жед Марлон, Стефан Войтович, Энни Мерсье, Кристин Мурийо, Жозиан Столеру

Описание: Серж, в прошлом известный актер, уже три года живет в одиночестве на Иль-де-Ре. Его бывший коллега Готье, карьера которого в разгаре, предлагает ему роль Альцеста в пьесе Мольера «Мизантроп». Персонаж пьесы и его исполнитель идеально сочетаются друг с другом. Но в реальном мире скрыто много различных ловушек.

Сэмпл

Качество: HDRip
Формат: AVI
Видео кодек: XviD
Аудио кодек: AC3
Видео: XviD, 1 529 Kbps, 720x384, 24.000 fps, Bits/(Pixel*Frame): 0.230
Аудио: AC-3, 448 Kbps, 6 ch, 48.0 KHz
General
Complete name : /etc/seedbox/home/kep/data/Alcect.na.Velosepede.2013.L1.HDRip.1.46Gb.avi
Format : AVI
Format/Info : Audio Video Interleave
File size : 1.46 GiB
Duration : 1h 45mn
Overall bit rate : 1 986 Kbps
Writing application : VirtualDubMod 1.5.10.2 (build 2540/release)
Writing library : VirtualDubMod build 2540/release

Video
ID : 0
Format : MPEG-4 Visual
Format profile : Advanced Simple@L5
Format settings, BVOP : 2
Format settings, QPel : No
Format settings, GMC : No warppoints
Format settings, Matrix : Default (H.263)
Codec ID : XVID
Codec ID/Hint : XviD
Duration : 1h 45mn
Bit rate : 1 529 Kbps
Width : 720 pixels
Height : 384 pixels
Display aspect ratio : 1.85:1
Frame rate : 24.000 fps
Color space : YUV
Chroma subsampling : 4:2:0
Bit depth : 8 bits
Scan type : Progressive
Compression mode : Lossy
Bits/(Pixel*Frame) : 0.230
Stream size : 1.12 GiB (77%)
Writing library : XviD 1.2.1 (UTC 2008-12-04)

Audio
ID : 1
Format : AC-3
Format/Info : Audio Coding 3
Mode extension : CM (complete main)
Format settings, Endianness : Big
Codec ID : 2000
Duration : 1h 45mn
Bit rate mode : Constant
Bit rate : 448 Kbps
Channel count : 6 channels
Channel positions : Front: L C R, Side: L R, LFE
Sampling rate : 48.0 KHz
Bit depth : 16 bits
Compression mode : Lossy
Stream size : 337 MiB (23%)
Alignment : Split accross interleaves
Interleave, duration : 42 ms (1.00 video frame)
Interleave, preload duration : 500 ms
pb.wtf



Скачать Альцест на велосипеде через торрент http://i1.imageban.ru/out/2014/01/25/01527c7c70bb685f7c616e010f2829e8.png Скачать, смотреть онлайн Альцест на велосипеде бесплантно в хорошем качестве Описание: Серж, в прошлом известный актер, уже три года живет в одиночестве на Иль-де-Ре. Его бывший коллега Готье, карьера которого в ... 9.7 10 6
Info! Золотая раздача, скачанное не засчитывается.
Торрент: Зарегистрирован [2014-01-24 23:38] · скачан: 75 раз
Статус: √ проверено
Размер: 1.46 GB
Как cкачать? Как скачать Альцест на велосипеде через торрент | UTorrent

% Раздел Тема Автор DL S | L
Фильмы с авторской озвучкой [ 4.69 GB ] Альцест на велосипеде / Alceste à bicyclette [2013 BDRip 720p Авторский одноголосое] кэп Скачать
1 | 0

28-11-2019 20:33  

Отключить всю рекламу на сайте

    Дорогой пользователь! Огромная просьба, поблагодарите релизера, оцените раздачу и оставьте свои комментарий, если Вы скачали Альцест на велосипеде через торрент бесплатно!
    Комментировать посты могут только пользователи прошедшие не сложную регистрацию
    Показать сообщения:    

    Альцест на велосипеде через торрент
    Скачать бесплатно Альцест на велосипеде
    Альцест на велосипеде скачать торрент
    Альцест на велосипеде смотреть онлайн
    Cкачать фильм Альцест на велосипеде бесплатно
    Альцест на велосипеде скачать торрент в хорошем качестве
    Альцест на велосипеде смотреть онлайн бесплатно в хорошем качестве


    Вы не можете начинать темы
    Вы не можете отвечать на сообщения
    Вы не можете редактировать свои сообщения
    Вы не можете удалять свои сообщения
    Вы не можете голосовать в опросах
    Вы не можете прикреплять файлы к сообщениям
    Вы можете скачивать файлы