MEGA SALE -75% Borderlands 3 Super Deluxe всего за 550р. 180 руб. (супер цена). Внимание количество ограничено!!!

iTunes

1+1

iTunes

мы

iTunes

1

iTunes

Чернобыль

iTunes

Ральф против интернета

Лицензия

ПШазам

Лицензия

Игра престолов

Лицензия

30
pack

ВАЖНО

!!Акция!!

Alien_RageХит недели

RePack

Resident Evil 21

ИГРА 18+

pack

RePack

Metro:Exodus

!!Акция!!

Alien_Rage

RePack

fifa19

RePack

Assassins Creed: Odyssey

RePack

NEED FOR SPEED™ PAYBACK

3 сезон

9 сезон

Бесстыжие 9 сезон

Все сериалы

все сериалы на PB.wtf

RePack

FAR CRY 5
Ребята, катастрофически не хватает 1900р. для оплаты серверов за АВГУСТ (всвязи с блокировками трафик упал в 3 раза), 1-2р., выручайте.
  

Грязная дюжина / The Dirty Dozen (Роберт Олдрич) [1967 г., Военный, драма, боевик, HDRip]MVO+DVO SomeWax.Universal Pictures pb.wtf

Грязная дюжина через торрент pb.wtf

Размер: 2.19 GB | Добавлен: 5 лет 8 мес. назад | Торрент скачан:13 раз
Скачать  

25-01-2014 00:32 Грязная дюжина Скачать торрент  

Грязная дюжина
Год выпуска: 1967
Страна: США Великобритания, Metro-Goldwyn-Mayer, Seven Arts Productions
Жанр: Военный, драма, боевик
Продолжительность: 02:29:38
Перевод: Профессиональный многоголосый

Режиссер: Роберт Олдрич
Продюссер: Кеннет Химэн, Рэймонд Анзарут
Сценарий: Наннэлли Джонсон, Лукас Хеллер, Э.М. Нэтансон





В ролях: Ли Марвин, Эрнест Боргнайн, Чарльз Бронсон, Джим Браун, Джон Кассаветис, Дональд Сазерленд, Ричард Джекел, Ральф Микер, Джордж Кеннеди, Трини Лопез, Роберт Райан, Телли Савалас, Клинт Уолкер, Роберт Веббер, Том Басби, Бен Карраверс, Стюарт Купер, Роберт Филлипс, Колин Мейтленд, Аль Манчини, Джон Холлис, Сюзанн Оуенс, Фредерик Шиллер, Джордж Рубичек

Описание: Весной 1944 года командованию американских войск, размещенных в Англии, стало известно, что в старинном замке Шато, расположенном во Франции, немцы устроили санаторий для высшего командования вермахта. Было решено захватить этот замок и уничтожить находящихся в нем немецких офицеров. Для выполнения этой задачи был организован отряд особого назначения под командованием майора Райзмана. В его состав были включены двенадцать заключенных военной тюрьмы, приговоренных к смертной казни или к длительным срокам каторги за тяжелые преступления. Им всем пообещали амнистию в случае успешного выполнения задания. После короткой, но интенсивной спецподготовки отряд был самолетом переброшен во Францию и приступил к проведению операции...

Доп. информация: По версии AFI (Американский институт киноискусства) "Грязная дюжина " входит в сотню самых остросюжетных американских фильмов за 100 лет под № 65.
► После той волны восторгов, которую вызвала «Грязная дюжина", появление сиквелов и подражаний было неизбежно. Что характерно, их продолжают снимать до сих пор. Значительно уступая оригиналу, некоторые из "переосмыслений", все же, заслуживают внимания. В их числе, к примеру, китайский «Deadly strike», в котором главную роль сыграл Брюс Лай и «American Tigers», в котором отметилась Синтия Ротрок.
► Фильм заработал $ 18,2 миллиона только в Северной Америке в 1967 году.

Качество: HDRip
Формат: AVI
Видео кодек: XviD
Аудио кодек: AC3
Видео: Xvid 704x400 23.98fps 1 659 Kbps
Аудио#1: Dolby AC3 48000Hz stereo 192kbps Профессиональный двухголосый (Universal Pictures)
Аудио#2: Dolby AC3 48000Hz stereo 224kbps Профессиональный многоголосый (SomeWax)
Релиз от: Skardinal





General
Complete name : D:The.Dirty.Dozen.1967.HDRip_[2.18]_[teko].avi
Format : AVI
Format/Info : Audio Video Interleave
Format profile : OpenDML
File size : 2.19 GiB
Duration : 2h 29mn
Overall bit rate : 2 093 Kbps
Writing application : VirtualDubMod 1.5.10.2 (build 2540/release)
Writing library : VirtualDubMod build 2540/release

Video
ID : 0
Format : MPEG-4 Visual
Format profile : Advanced Simple@L5
Format settings, BVOP : 1
Format settings, QPel : No
Format settings, GMC : No warppoints
Format settings, Matrix : Custom
Codec ID : XVID
Codec ID/Hint : XviD
Duration : 2h 29mn
Bit rate : 1 659 Kbps
Width : 704 pixels
Height : 400 pixels
Display aspect ratio : 16:9
Frame rate : 23.976 fps
Color space : YUV
Chroma subsampling : 4:2:0
Bit depth : 8 bits
Scan type : Progressive
Compression mode : Lossy
Bits/(Pixel*Frame) : 0.246
Stream size : 1.73 GiB (79%)
Writing library : XviD 1.2.1 (UTC 2008-12-04)

Audio #1
ID : 1
Format : AC-3
Format/Info : Audio Coding 3
Mode extension : CM (complete main)
Codec ID : 2000
Duration : 2h 29mn
Bit rate mode : Constant
Bit rate : 192 Kbps
Channel(s) : 1 channel
Channel positions : Front: C
Sampling rate : 48.0 KHz
Bit depth : 16 bits
Compression mode : Lossy
Stream size : 205 MiB (9%)
Alignment : Split accross interleaves
Interleave, duration : 42 ms (1.00 video frame)
Interleave, preload duration : 500 ms

Audio #2
ID : 2
Format : AC-3
Format/Info : Audio Coding 3
Mode extension : CM (complete main)
Codec ID : 2000
Duration : 2h 29mn
Bit rate mode : Constant
Bit rate : 224 Kbps
Channel(s) : 2 channels
Channel positions : Front: L R
Sampling rate : 48.0 KHz
Bit depth : 16 bits
Compression mode : Lossy
Stream size : 240 MiB (11%)
Alignment : Split accross interleaves
Interleave, duration : 42 ms (1.00 video frame)
Interleave, preload duration : 500 ms


Грязная дюжина скачать торрент


pb.wtf



Скачать Грязная дюжина через торрент http://pic.kartinco.top/images/6/nz2bc.jpg Скачать фильм Грязная дюжина через торрент бесплантно в хорошем качестве Описание: Весной 1944 года командованию американских войск, размещенных в Англии, стало известно, что в старинном замке Шато, расположенном ... 10 10 2
Info! Золотая раздача, скачанное не засчитывается.
Торрент: Зарегистрирован [2014-01-25 00:32] · скачан: 13 раз
Статус: √ проверено
Размер: 2.19 GB
Как cкачать? Как скачать Грязная дюжина через торрент | qTorrent


>> Регистрируемся здесь <<






Отзывы и комментарии о схеме читаем и пишем здесь: ---> Отзывы и комментарии о схеме

Новые благодарочки в телеграм довольных пользователей:
скриншот   скриншот   скриншот   скриншот   скриншот
    Дорогой пользователь! Огромная просьба, поблагодарите релизера, оцените раздачу и оставьте свои комментарий, если Вы скачали Грязная дюжина через торрент бесплатно! Внесите свою лепту в развитие PiratBit!
    Комментировать посты могут только пользователи прошедшие не сложную регистрацию
    Показать сообщения:    

    Грязная дюжина через торрент
    Скачать бесплатно Грязная дюжина
    Грязная дюжина скачать торрент
    Грязная дюжина смотреть онлайн
    Cкачать фильм Грязная дюжина бесплатно
    Грязная дюжина скачать торрент в хорошем качестве
    Грязная дюжина смотреть онлайн бесплатно в хорошем качестве


    Вы не можете начинать темы
    Вы не можете отвечать на сообщения
    Вы не можете редактировать свои сообщения
    Вы не можете удалять свои сообщения
    Вы не можете голосовать в опросах
    Вы не можете прикреплять файлы к сообщениям
    Вы можете скачивать файлы