MEGA SALE -50% FORZA HORIZON 4 ULTIMATE+ВСЕ DLC+ОНЛАЙН всего за 599р. 299 руб. (супер цена). Внимание количество ограничено!!!

iTunes

1+1

iTunes

мы

iTunes

1

iTunes

Чернобыль

1 сезон

Ральф против интернета

Лицензия

ПШазам

Лицензия

Игра престолов

Лицензия

30
pack

ВАЖНО

!!Акция!!

Alien_RageХит недели

RePack

Resident Evil 21

ИГРА 18+

pack

RePack

Metro:Exodus

!!Акция!!

Alien_Rage

RePack

fifa19

RePack

Assassins Creed: Odyssey

RePack

NEED FOR SPEED™ PAYBACK

3 сезон

9 сезон

Бесстыжие 9 сезон

Все сериалы

все сериалы на PB.wtf

RePack

FAR CRY 5
Ребята, катастрофически не хватает 7730р. для оплаты серверов за ИЮЛЬ (всвязи с блокировками трафик упал в 3 раза), 1-2р., выручайте.
  

Грязная дюжина: Следующее задание / The Dirty Dozen: Next Mission (Эндрю В. МакЛаглен) [1985 г., Боевик, драма, военный, приключения, DVDRip]AVO Ю.Живов pb.wtf

Грязная дюжина: Следующее задание через торрент pb.wtf

Размер: 1.37 GB | Добавлен: 5 лет 6 мес. назад | Торрент скачан:12 раз
Скачать  

25-01-2014 02:14 Грязная дюжина: Следующее задание Скачать торрент  

Грязная дюжина: Следующее задание
Год выпуска: 1985
Страна: США «MGM»
Жанр: Боевик, драма, военный, приключения
Продолжительность: 01:35:43
Перевод: Авторский (Ю.Живов)

Режиссер: Эндрю В. МакЛаглен
Продюссер: Гарри Р. Шерман, Фредерик Мюллер
Сценарий: Майкл Кэйн, Лукас Хеллер, Наннэлли Джонсон





В ролях: Ли Марвин, Эрнест Боргнайн, Кен Уолл, Ларри Уилкокс, Сонни Лэндэм, Ричард Джекил, Вольф Калер, Гэван О'Херлихи, Рикко Росс, Рольф Саксон, Пол Херцберг, Джефф Хардинг, Сэм Дуглас, Расселл Соммерс, Майкл Ширд, Джон Малкольм, Уильям Морган Шеппард, Дэнис Холмс, Алан Бэрри, Дон Феллоуз, Дерек Лайонс, Брюс Боа

Описание: Продолжение фильма "Грязная дюжина" (1967) года. Действие фильма происходит в сентябре 1944 года в оккупированной Франции. Для выполнения операции по убийству немецкого генерала СС- Дитриха, который планирует устранить Адольфа Гитлера майором Райзманом был сформирован новый отряд диверсантов. В этот отряд отобрали 12 военных заключенных, приговоренных трибуналом к смертной казни и длительным срокам каторги за тяжкие преступления. И вот группа отправлена во Францию, и все пошло не так, как задумывалось...

Качество: DVDRip
Формат: AVI
Видео кодек: XviD
Аудио кодек: AC3
Видео: Xvid 688x496 25.00fps 1 840 Kbps
Аудио: Dolby AC3 48000Hz mono 192kbps
Релиз от: grom1601





General
Complete name : D:Gryaznaya.dyuzhina.sledueshchee.zadanie.1985.XviD.DVDRip.grom1601.avi
Format : AVI
Format/Info : Audio Video Interleave
File size : 1.37 GiB
Duration : 1h 35mn
Overall bit rate : 2 042 Kbps
Writing application : VirtualDubMod 1.5.10.1 Рус от Stvens Inc.™ www.stvens.amillo.net (build 2439/release)
Writing library : VirtualDubMod build 2439/release

Video
ID : 0
Format : MPEG-4 Visual
Format profile : Advanced Simple@L5
Format settings, BVOP : 1
Format settings, QPel : No
Format settings, GMC : No warppoints
Format settings, Matrix : Default (MPEG)
Muxing mode : Packed bitstream
Codec ID : XVID
Codec ID/Hint : XviD
Duration : 1h 35mn
Bit rate : 1 840 Kbps
Width : 688 pixels
Height : 496 pixels
Display aspect ratio : 1.387
Frame rate : 25.000 fps
Color space : YUV
Chroma subsampling : 4:2:0
Bit depth : 8 bits
Scan type : Progressive
Compression mode : Lossy
Bits/(Pixel*Frame) : 0.216
Stream size : 1.23 GiB (90%)
Writing library : XviD 1.2.0.dev47 (UTC 2006-11-01)

Audio
ID : 1
Format : AC-3
Format/Info : Audio Coding 3
Mode extension : CM (complete main)
Codec ID : 2000
Duration : 1h 35mn
Bit rate mode : Constant
Bit rate : 192 Kbps
Channel(s) : 1 channel
Channel positions : Front: C
Sampling rate : 48.0 KHz
Bit depth : 16 bits
Compression mode : Lossy
Stream size : 131 MiB (9%)
Alignment : Split accross interleaves
Interleave, duration : 40 ms (1.00 video frame)
Interleave, preload duration : 500 ms

pb.wtf



Скачать Грязная дюжина: Следующее задание через торрент http://pic.kartinco.top/images/6/xyoc3.jpg Скачать фильм Грязная дюжина: Следующее задание через торрент бесплантно в хорошем качестве Описание: Продолжение фильма "Грязная дюжина" (1967) года. Действие фильма происходит в сентябре 1944 года в оккупированной Франции. Для ... 7.3 10 3
Info! Золотая раздача, скачанное не засчитывается.
Торрент: Зарегистрирован [2014-01-25 02:14] · скачан: 12 раз
Статус: √ проверено
Размер: 1.37 GB
Как cкачать? Как скачать Грязная дюжина: Следующее задание через торрент | qTorrent


>> Регистрируемся здесь <<






Отзывы и комментарии о схеме читаем и пишем здесь: ---> Отзывы и комментарии о схеме

Новые благодарочки в телеграм довольных пользователей:
скриншот   скриншот   скриншот   скриншот   скриншот
    Дорогой пользователь! Огромная просьба, поблагодарите релизера, оцените раздачу и оставьте свои комментарий, если Вы скачали Грязная дюжина: Следующее задание через торрент бесплатно! Внесите свою лепту в развитие PiratBit!
    Комментировать посты могут только пользователи прошедшие не сложную регистрацию
    Показать сообщения:    

    Грязная дюжина: Следующее задание через торрент
    Скачать бесплатно Грязная дюжина: Следующее задание
    Грязная дюжина: Следующее задание скачать торрент
    Грязная дюжина: Следующее задание смотреть онлайн
    Cкачать фильм Грязная дюжина: Следующее задание бесплатно
    Грязная дюжина: Следующее задание скачать торрент в хорошем качестве
    Грязная дюжина: Следующее задание смотреть онлайн бесплатно в хорошем качестве


    Вы не можете начинать темы
    Вы не можете отвечать на сообщения
    Вы не можете редактировать свои сообщения
    Вы не можете удалять свои сообщения
    Вы не можете голосовать в опросах
    Вы не можете прикреплять файлы к сообщениям
    Вы можете скачивать файлы