MEGA SALE -50% FORZA HORIZON 4 ULTIMATE+ВСЕ DLC+ОНЛАЙН всего за 599р. 299 руб. (супер цена). Внимание количество ограничено!!!

iTunes

1+1

iTunes

мы

iTunes

1

iTunes

Чернобыль

iTunes

Ральф против интернета

Лицензия

ПШазам

Лицензия

Игра престолов

Лицензия

30
pack

ВАЖНО

!!Акция!!

Alien_RageХит недели

RePack

Resident Evil 21

ИГРА 18+

pack

RePack

Metro:Exodus

!!Акция!!

Alien_Rage

RePack

fifa19

RePack

Assassins Creed: Odyssey

RePack

NEED FOR SPEED™ PAYBACK

3 сезон

9 сезон

Бесстыжие 9 сезон

Все сериалы

все сериалы на PB.wtf

RePack

FAR CRY 5
Ребята, катастрофически не хватает 7730р. для оплаты серверов за АВГУСТ (всвязи с блокировками трафик упал в 3 раза), 1-2р., выручайте.
  

Грязная дюжина: Фатальное задание / The Dirty Dozen: The Fatal Mission (Ли Х. Кэтцин) [1988 г., Драма, боевик, военный, приключения, DVDRip] DVO Fenixclub pb.wtf

Грязная дюжина: Фатальное задание через торрент pb.wtf

Размер: 1.37 GB | Добавлен: 5 лет 7 мес. назад | Торрент скачан:20 раз
Скачать  

25-01-2014 03:27 Грязная дюжина: Фатальное задание Скачать торрент  

Грязная дюжина: Фатальное задание
Год выпуска: 1988
Страна: США MGM Television Productions, Югославия, Jadran Film, Zagreb, Италия, Radiotelevisione Italiana (RAI)
Жанр: Драма, боевик, военный, приключения
Продолжительность: 01:30:46
Перевод: Профессиональный двухголосый Fenixclub

Режиссер: Ли Х. Кэтцин
Продюссер: Мэл Своуп, Борис Грегорич
Сценарий: Марк Роджерс, Наннэлли Джонсон, Лукас Хеллер





В ролях: Телли Савалас, Эрнест Боргнайн, Винс Эдвардс, Хант Блок, Мэттью Бертон, Джефф Конэвей, Алекс Корд, Бо Свенсон, Эрик Эстрада, Эрни Хадсон, Винсент Ван Паттен, Джеймс Ван Паттен, Рэндал «Текс» Кобб, Гари Грэхэм, Вольф Калер, Джеймс Кэрролл Джордан, Наталия Ногулич, Хезер Томас, Энтони Валентайн, Ричард Юнигез, Дерек Хоксби, Ричард Гарнетт, Гас Савалас, Дрю Лукас, Слободан Милованович, Дамир Сабан

Описание: Вторая Мировая война. Майор Райт, ведущий группу коммандос в оккупированной нацистами Дании должна встретится с агентом капитаном Карлом Людвигом. Но он застрелен фашистским патрулём. Прежде, чем он умер, он произнёс фразу: 2420, значение которой никто не понял. В Англии Майор Райт, генерал Уорден, Лейтенант Кэрол Кэмпбэл и британский полковник ведут обсуждение, что означали слова капитана Людвига. Майор Райт набирает отряд из 12 военных заключенных, приговоренных трибуналом к смертной казни и длительным срокам каторги за тяжкие преступления, которые поедут в специальном поезде №2420, чтобы разгадать смысл операции немцев...

Качество: DVDRip
Формат: AVI
Видео кодек: XviD
Аудио кодек: AC3
Видео: Xvid 656x480 25.00fps 1 501 Kbps
Аудио#1: Dolby AC3 48000Hz 2ch 192bps русский
Аудио#2: Dolby AC3 48000Hz 6ch 448kbps английский
Релиз от: grom1601





General
Complete name : D:Gryaznaya.dyuzhina.fatalnoe.zadanie.1988.XviD.DVDRip.grom1601.avi
Format : AVI
Format/Info : Audio Video Interleave
File size : 1.37 GiB
Duration : 1h 30mn
Overall bit rate : 2 155 Kbps
Writing application : FairUse Wizard - http://fairusewizard.com
Writing library : The best and REALLY easy backup tool

Video
ID : 0
Format : MPEG-4 Visual
Format profile : Advanced Simple@L5
Format settings, BVOP : 1
Format settings, QPel : No
Format settings, GMC : No warppoints
Format settings, Matrix : Default (MPEG)
Muxing mode : Packed bitstream
Codec ID : XVID
Codec ID/Hint : XviD
Duration : 1h 30mn
Bit rate : 1 501 Kbps
Width : 656 pixels
Height : 480 pixels
Display aspect ratio : 4:3
Frame rate : 25.000 fps
Color space : YUV
Chroma subsampling : 4:2:0
Bit depth : 8 bits
Scan type : Progressive
Compression mode : Lossy
Bits/(Pixel*Frame) : 0.191
Stream size : 974 MiB (70%)
Writing library : XviD 1.2.0.dev47 (UTC 2006-11-01)

Audio #1
ID : 1
Format : AC-3
Format/Info : Audio Coding 3
Mode extension : CM (complete main)
Codec ID : 2000
Duration : 1h 30mn
Bit rate mode : Constant
Bit rate : 192 Kbps
Channel(s) : 2 channels
Channel positions : Front: L R
Sampling rate : 48.0 KHz
Bit depth : 16 bits
Compression mode : Lossy
Stream size : 125 MiB (9%)
Alignment : Split accross interleaves
Interleave, duration : 40 ms (1.00 video frame)
Interleave, preload duration : 500 ms

Audio #2
ID : 2
Format : AC-3
Format/Info : Audio Coding 3
Mode extension : CM (complete main)
Codec ID : 2000
Duration : 1h 30mn
Bit rate mode : Constant
Bit rate : 448 Kbps
Channel(s) : 6 channels
Channel positions : Front: L C R, Side: L R, LFE
Sampling rate : 48.0 KHz
Bit depth : 16 bits
Compression mode : Lossy
Stream size : 291 MiB (21%)
Alignment : Split accross interleaves
Interleave, duration : 40 ms (1.00 video frame)
Interleave, preload duration : 500 ms


Грязная дюжина скачать торрент


pb.wtf



Скачать Грязная дюжина: Фатальное задание через торрент http://pic.kartinco.top/images/6/9xb9u.jpg Скачать фильм Грязная дюжина: Фатальное задание через торрент бесплантно в хорошем качестве Описание: Вторая Мировая война. Майор Райт, ведущий группу коммандос в оккупированной нацистами Дании должна встретится с агентом капитаном ... 10 10 3
Info! Золотая раздача, скачанное не засчитывается.
Торрент: Зарегистрирован [2014-01-25 03:27] · скачан: 20 раз
Статус: √ проверено
Размер: 1.37 GB
Как cкачать? Как скачать Грязная дюжина: Фатальное задание через торрент | qTorrent


>> Регистрируемся здесь <<






Отзывы и комментарии о схеме читаем и пишем здесь: ---> Отзывы и комментарии о схеме

Новые благодарочки в телеграм довольных пользователей:
скриншот   скриншот   скриншот   скриншот   скриншот
    Дорогой пользователь! Огромная просьба, поблагодарите релизера, оцените раздачу и оставьте свои комментарий, если Вы скачали Грязная дюжина: Фатальное задание через торрент бесплатно! Внесите свою лепту в развитие PiratBit!
    Комментировать посты могут только пользователи прошедшие не сложную регистрацию
    Показать сообщения:    

    Грязная дюжина: Фатальное задание через торрент
    Скачать бесплатно Грязная дюжина: Фатальное задание
    Грязная дюжина: Фатальное задание скачать торрент
    Грязная дюжина: Фатальное задание смотреть онлайн
    Cкачать фильм Грязная дюжина: Фатальное задание бесплатно
    Грязная дюжина: Фатальное задание скачать торрент в хорошем качестве
    Грязная дюжина: Фатальное задание смотреть онлайн бесплатно в хорошем качестве


    Вы не можете начинать темы
    Вы не можете отвечать на сообщения
    Вы не можете редактировать свои сообщения
    Вы не можете удалять свои сообщения
    Вы не можете голосовать в опросах
    Вы не можете прикреплять файлы к сообщениям
    Вы можете скачивать файлы