Присоединяйтесь к нам в Telegram!, здесь всегда актуальный адрес сайта, оперативная поддержка и многое другое!!

>

5.9

iTunes

7.4

iTunes

9.4

1 сезон

1

7.4

2 сезон

7.2

iTunes

7.3

1 сезон

13

6.1

iTunes

8.3

GOG

30

ULTIMATE

pack

9.9

Лицензия

ВАЖНО

ИГРА 18+

pack

7.3

RePack

MK11

7.7

RePack

jed

7.8

RePack

fifa19

8.5

RePack

RDR2

RePack

NEED FOR SPEED™ PAYBACK

5 сезон

9 сезон

Бесстыжие 9 сезон

Все сериалы

все сериалы на PB.wtf

RePack

FAR CRY 5

Anonymous, добрый день, мы катастрофически не успеваем собрать деньги на оплату серверов, помогите нам пожалуйста 5,10,15р., для нас важна любая помощь . В качестве благодарности мы отключим Вам всю рекламу на сайте (укажите свой ник в строку Ваше имя)!

×
  
Magnet ссылка

VA - Monsters of Metal Vol.9 [2014 г., Heavy/Power/Gothic/Symphonic/Death and more Metal, BDRip 720p] pb.wtf

VA - Monsters of Metal Vol.9 [2014 г., Heavy через торрент pb.wtf

Качают: 1 [ 0 KB/s ]
Размер: 7.65 GB | Добавлен: 7 лет 10 мес. назад | Торрент скачан:66 раз
Смотреть онлайн VA - Monsters of Metal Vol.9 [2014 г., Heavy | Скачать    Ребята, помогите собрать деньги на оплату серверов!!!

25-01-2014 08:17 VA - Monsters of Metal Vol.9 [2014 г., Heavy Скачать торрент  

VA - Monsters of Metal Vol.9
Год выпуска: 2014
Страна: Germany
Жанр: Heavy, Power, Gothic, Symphonic, Death and more Metal
Продолжительность: 03:34:47
Продюссер: Nuclear Blast
01. Accept - Teutonic Terror 05:32
02. Amorphis - Hopeless Days 05:14
03. Avantasia - Sleepwalking 03:46
04. Blackstar Riders - Hey Judas 04:28
05. Doro - Raise Your Fist In The Air 03:28
06. Epica - Storm The Sorrow 05:12
07. Gotthard - Starlight 04:15
08. Korpiklaani - Rauta 03:14
09. Nightwish - Storytime (live) 05:34
10. Powerwolf - Amen & Attack 04:38
11. Rage - 21 05:08
12. Sabaton - Ghost Division (live) 04:13
13. Sonata Arctica - I Have A Right 03:52
14. Threshold - Staring At The Sun 04:27
15. Anti-Mortem - Stagnant Water 05:10
16. Asking Alexandria - Closure 04:07
17. Children Of Bodom - Transference 04:36
18. Eluveitie - Havoc 04:08
19. Hatebreed - Honor Never Dies 03:44
20. Heaven Shall Burn - Hunters Will Be Hunted 06:01
21. Hypocrisy - End Of Disclosure 05:06
22. In Flames - Where The Dead Ships Dwell 03:25
23. Kataklysm - Elevate 03:56
24. Meshuggah - Break Those Bones Whose Sinews Gave It Motion 06:58
25. Moonspell - Lickantrope 03:54
26. Nile - Enduring The Eternal Molestation Of Flame 04:28
27. Soilwork - Spectrum Of Eternity 04:03
28. Suffocation - As Grace Descends 03:35
29. Suicide Silence - You Only Live Once 03:20
30. Thy Art Is Murder - Reign Of Darkness 03:57
31. Death Angel - Truce 03:36
32. Destruction - Carnivore 04:59
33. Devildriver - The Appetite 05:25
34. Kreator - Phantom Antichrist 04:57
35. Legion Of The Damned - Mountain Wolves Under A Crescent 04:26
36. Lost Society - KILL (Those Who Oppose Me) 03:57
37. Overkill - Electric Rattlesnake 06:14
38. Tankard - A Girl Called Cerveza 04:16
39. Testament - Native Blood 05:50
40. Free Fall - World Domination 04:45
41. Graveyard - Endless Night 02:47
42. Kadavar - Come Back Life 05:35
43. Orchid - Capricorn 04:48
44. Scorpion Child - Polygon Of Eyes 04:31
45. The Vintage Caravan - Expand Your Mind 08:40.
Качество: BDRip 720p
Формат: MKV
Видео кодек: H.264
Аудио кодек: AC3
Видео: MPEG4 Video (H264) 1280x720 4 459 Kbps 24fps
Аудио: Dolby AC3 640 Kbps 48000Hz stereo,2ch.






General
Unique ID : 241658377506781718933072264559334642983 (0xB5CDB5E6F2A681CD9603BF064E31D527)
Complete name : C:UsersEddyVideosТорентыMonsters of Metal Vol.9.720p.mkv
Format : Matroska
Format version : Version 4 / Version 2
File size : 7.65 GiB
Duration : 3h 34mn
Overall bit rate : 5 102 Kbps
Encoded date : UTC 2014-01-20 20:52:03
Writing application : mkvmerge v6.7.0 ('Back to the Ground') 64bit built on Jan 8 2014 15:10:52
Writing library : libebml v1.3.0 + libmatroska v1.4.1

Video
ID : 1
Format : AVC
Format/Info : Advanced Video Codec
Format profile : High@L4.1
Format settings, CABAC : Yes
Format settings, ReFrames : 5 frames
Codec ID : V_MPEG4/ISO/AVC
Duration : 3h 34mn
Bit rate : 4 459 Kbps
Width : 1 280 pixels
Height : 720 pixels
Display aspect ratio : 16:9
Frame rate mode : Constant
Frame rate : 24.000 fps
Color space : YUV
Chroma subsampling : 4:2:0
Bit depth : 8 bits
Scan type : Progressive
Bits/(Pixel*Frame) : 0.202
Stream size : 6.54 GiB (85%)
Writing library : x264 core 140 r2377kMod 1ca7bb9
Encoding settings : cabac=1 / ref=5 / deblock=1:0:0 / analyse=0x3:0x133 / me=umh / subme=8 / psy=1 / fade_compensate=0.00 / psy_rd=1.00:0.00 / mixed_ref=1 / me_range=16 / chroma_me=1 / trellis=1 / 8x8dct=1 / cqm=0 / deadzone=21,11 / fast_pskip=0 / chroma_qp_offset=-2 / threads=12 / lookahead_threads=2 / sliced_threads=0 / nr=0 / decimate=1 / interlaced=0 / bluray_compat=0 / constrained_intra=0 / fgo=0 / bframes=3 / b_pyramid=2 / b_adapt=1 / b_bias=0 / direct=1 / weightb=1 / open_gop=0 / weightp=2 / keyint=250 / keyint_min=24 / scenecut=40 / intra_refresh=0 / rc_lookahead=40 / rc=2pass / mbtree=1 / bitrate=4459 / ratetol=1.0 / qcomp=0.60 / qpmin=0 / qpmax=69 / qpstep=4 / cplxblur=20.0 / qblur=0.5 / ip_ratio=1.40 / aq=1:1.00
Language : English
Default : Yes
Forced : No

Audio
ID : 2
Format : AC-3
Format/Info : Audio Coding 3
Mode extension : CM (complete main)
Format settings, Endianness : Big
Codec ID : A_AC3
Duration : 3h 34mn
Bit rate mode : Constant
Bit rate : 640 Kbps
Channel(s) : 2 channels
Channel positions : Front: L R
Sampling rate : 48.0 KHz
Bit depth : 16 bits
Compression mode : Lossy
Stream size : 983 MiB (13%)
Default : Yes
Forced : No

pb.wtf



Скачать VA - Monsters of Metal Vol.9 [2014 г., Heavy через торрент https://pic1.kartinco.top/images/61/ucli7.jpg Скачать, смотреть онлайн VA - Monsters of Metal Vol.9 [2014 г., Heavy бесплантно в хорошем качестве Год выпуска: 2014Страна: GermanyЖанр: Heavy, Power, Gothic, Symphonic, Death and more MetalПродолжительность: 03:34:47Продюссер: Nuclear ... 10 10 7
Info! Золотая раздача, скачанное не засчитывается.
Торрент: Зарегистрирован [2014-01-25 08:17] · скачан: 66 раз
Статус: √ проверено
Размер: 7.65 GB
Как cкачать? Как скачать VA - Monsters of Metal Vol.9 [2014 г., Heavy через торрент | UTorrent

28-11-2019 20:33  

Отключить всю рекламу на сайте

25-01-2014 09:00 VA - Monsters of Metal Vol.9 [2014 г., Heavy Скачать торрент  

спасибо за метал!!!!pb.wtf



    Дорогой пользователь! Огромная просьба, поблагодарите релизера, оцените раздачу и оставьте свои комментарий, если Вы скачали VA - Monsters of Metal Vol.9 [2014 г., Heavy через торрент бесплатно!
    Комментировать посты могут только пользователи прошедшие не сложную регистрацию
    Показать сообщения:    

    VA - Monsters of Metal Vol.9 [2014 г., Heavy через торрент
    Скачать бесплатно VA - Monsters of Metal Vol.9 [2014 г., Heavy
    VA - Monsters of Metal Vol.9 [2014 г., Heavy скачать торрент
    VA - Monsters of Metal Vol.9 [2014 г., Heavy смотреть онлайн
    Cкачать фильм VA - Monsters of Metal Vol.9 [2014 г., Heavy бесплатно
    VA - Monsters of Metal Vol.9 [2014 г., Heavy скачать торрент в хорошем качестве
    VA - Monsters of Metal Vol.9 [2014 г., Heavy смотреть онлайн бесплатно в хорошем качестве


    Вы не можете начинать темы
    Вы не можете отвечать на сообщения
    Вы не можете редактировать свои сообщения
    Вы не можете удалять свои сообщения
    Вы не можете голосовать в опросах
    Вы не можете прикреплять файлы к сообщениям
    Вы можете скачивать файлы