2 сезон

iTunes

MVO

1

2 сезон

iTunes

iTunes

1 сезон

RePack

30

Новинка

ВАЖНО

ИГРА 18+

pack

RePack

MK11
pack

Легкие деньги

RePack

jed

RePack

fifa19

RePack

RDR2

RePack

NEED FOR SPEED™ PAYBACK

4 сезон

9 сезон

Бесстыжие 9 сезон

Все сериалы

все сериалы на PB.wtf

RePack

FAR CRY 5

Anonymous, доброе утро, мы не успеваем собрать деньги на оплату серверов за декабрь и январь, помогите нам пожалуйста в это трудное время. В качестве благодарности мы отключим Вам всю рекламу на сайте (укажите свой ник в строку Ваше имя)!

×
  
Magnet ссылка

Последний Из Нас / The Last of Us (Эван Уэллс, Кристоф Балестра) [2013 г., триллер, драма, прохождение игры, WEB-DLRip 720p, Дубляж] pb.wtf

Последний Из Нас через торрент pb.wtf

Размер: 2.05 GB | Добавлен: 7 лет назад | Торрент скачан:152 раза
Скачать  

25-01-2014 12:28 Последний Из Нас Скачать торрент  

Последний Из Нас / The Last of Us
Год выпуска: 2013
Страна: США
Жанр: триллер, драма, прохождение игры
Продолжительность: 02:55:56
Перевод: Дубляж

Режиссер: Эван Уэллс Кристоф Балестра
Сценарий: Neil Druckmann



В ролях: Джейкоб Минкофф, Рикки Камбир, Марк Дэвис, Бенсон Рассел, Элизабетта Силли, Эрик Пангилинан, Нейт Уэйллс,

Описание: События разворачиваются в Америке спустя несколько лет после глобальной катастрофы. Мир охватила страшная эпидемия, в результате которой большинство людей превратилось в безумных мутантов и лишь немногие, в том числе и главные герои игры, Джоэл и Элли, продолжили борьбу за выживание...

Качество: WEB-DLRip 720p
Формат: MP4
Видео кодек: H.264
Аудио кодек: AAC
Видео: AVC at 1477 Кбит/сек Aspect : 1280 x 720 (1.778) at 25.000 fps
Аудио#1: AAC at 192 Кбит/сек Infos : 2 канала, 44,1 КГц
СЭМПЛ
скриншот   скриншот   скриншот   скриншот  

Код:

Формат                                   : MPEG-4
Профиль формата                          : Base Media / Version 2
Идентификатор кодека                     : mp42
Размер файла                             : 2,05 Гбайт
Продолжительность                        : 2 ч. 55 м.
Режим общего битрейта                    : Переменный
Общий поток                              : 1672 Кбит/сек
Дата кодирования                         : UTC 2014-01-10 16:23:46
Дата пометки                             : UTC 2014-01-10 16:23:46
gsst                                     : 0
gstd                                     : 10556650
gssd                                     : B4A7DAD62HH1390585884702143
gshh                                     : r8---sn-4g57kn6r.googlevideo.com

Видео
Идентификатор                            : 1
Формат                                   : AVC
Формат/Информация                        : Advanced Video Codec
Профиль формата                          : High@L3.1
Параметр CABAC формата                   : Да
Параметр ReFrames формата                : 1 кадр
Идентификатор кодека                     : avc1
Идентификатор кодека/Информация          : Advanced Video Coding
Продолжительность                        : 2 ч. 55 м.
Битрейт                                  : 1477 Кбит/сек
Максимальный битрейт                     : 6652 Кбит/сек
Ширина                                   : 1280 пикселей
Высота                                   : 720 пикселей
Соотношение сторон                       : 16:9
Режим частоты кадров                     : Постоянный
Частота кадров                           : 25,000 кадров/сек
Цветовое пространство                    : YUV
Субдискретизация насыщенности            : 4:2:0
Битовая глубина                          : 8 бит
Тип развёртки                            : Прогрессивная
Бит/(Пиксели*Кадры)                      : 0.064
Размер потока                            : 1,82 Гбайт (88%)
Дата пометки                             : UTC 2014-01-10 16:35:59

Аудио
Идентификатор                            : 2
Формат                                   : AAC
Формат/Информация                        : Advanced Audio Codec
Профиль формата                          : LC
Идентификатор кодека                     : 40
Продолжительность                        : 2 ч. 55 м.
Вид битрейта                             : Переменный
Битрейт                                  : 192 Кбит/сек
Максимальный битрейт                     : 202 Кбит/сек
Каналы                                   : 2 канала
Расположение каналов                     : Front: L R
Частота                                  : 44,1 КГц
Метод сжатия                             : С потерями
Размер потока                            : 242 Мбайт (11%)
Заголовок                                : IsoMedia File Produced by Google, 5-11-2011
Дата кодирования                         : UTC 2014-01-10 16:31:02
Дата пометки                             : UTC 2014-01-10 16:35:59


pb.wtf



Скачать Последний Из Нас через торрент https://pic.kartinco.top/images/6/ehk8a.jpg Скачать фильм Последний Из Нас через торрент бесплантно в хорошем качестве Описание: События разворачиваются в Америке спустя несколько лет после глобальной катастрофы. Мир охватила страшная эпидемия, в результате ... 7.3 10 15
Info! Золотая раздача, скачанное не засчитывается.
Торрент: Зарегистрирован [2014-01-25 12:28] · скачан: 152 раз
Статус: √ проверено
Размер: 2.05 GB
Как cкачать? Как скачать Последний Из Нас через торрент | UTorrent

% Раздел Тема Автор DL S | L
Мультфильмы / Cartoons [ 2.11 GB ] Элли сборка / Ellie assembly [2018 3D All Sex Teens Rape Monsters Lesbians Masturbation Futanari Bestiality Orgy Creampie WEBRip Оригинальный] DJASFUL Скачать
1 | 0


Последний раз редактировалось: VintMosina (2014-01-25 12:54), всего редактировалось 1 раз

28-11-2019 20:33  

Отключить всю рекламу на сайте

25-01-2014 12:48 Последний Из Нас Скачать торрент  

shultz
Укажи в теме что это прохождение игры?pb.wtf



25-01-2014 13:05 Последний Из Нас Скачать торрент  

это вообще зачем??? игра полностью линейна... или чтоб позавидовали те у кого нет плойки?!pb.wtf



26-01-2014 15:06 Последний Из Нас Скачать торрент  

Очень интересный фильм, посмотрел с большим удовольствием. Спасибо.pb.wtf



19-05-2016 22:27 Последний Из Нас Скачать торрент  

классная темаpb.wtf



    Дорогой пользователь! Огромная просьба, поблагодарите релизера, оцените раздачу и оставьте свои комментарий, если Вы скачали Последний Из Нас через торрент бесплатно! Внесите свою лепту в развитие PiratBit!
    Комментировать посты могут только пользователи прошедшие не сложную регистрацию
    Показать сообщения:    

    Последний Из Нас через торрент
    Скачать бесплатно Последний Из Нас
    Последний Из Нас скачать торрент
    Последний Из Нас смотреть онлайн
    Cкачать фильм Последний Из Нас бесплатно
    Последний Из Нас скачать торрент в хорошем качестве
    Последний Из Нас смотреть онлайн бесплатно в хорошем качестве


    Вы не можете начинать темы
    Вы не можете отвечать на сообщения
    Вы не можете редактировать свои сообщения
    Вы не можете удалять свои сообщения
    Вы не можете голосовать в опросах
    Вы не можете прикреплять файлы к сообщениям
    Вы можете скачивать файлы