Ссылка на приватное зеркало нашего сайта всего за 1$. Внимание количество ограничено!!!

2 сезон

iTunes

1 сезон

1

iTunes

iTunes

iTunes

1 сезон

RePack

30

ИГРА 18+

pack

ВАЖНО

!!Акция!!

Alien_RageХит недели

RePack

MK11
pack

Забери бонус

RePack

jed

!!Акция!!

Alien_Rage

RePack

fifa19

RePack

Assassins Creed: Odyssey

RePack

NEED FOR SPEED™ PAYBACK

4 сезон

9 сезон

Бесстыжие 9 сезон

Все сериалы

все сериалы на PB.wtf

RePack

FAR CRY 5
  

Как я теперь люблю / How I Live Now (Кевин МакДональд / Kevin Macdonald) [ 2013 , Великобритания , фэнтези, драма, приключения , BDRip 1080p ] AVO [А. Матвеев aka Doktor_Joker]+ENG+Sub(Rus) pb.wtf

Как я теперь люблю через торрент pb.wtf

Размер: 7.92 GB | Добавлен: 6 лет 8 мес. назад | Торрент скачан:103 раза
Скачать  

25-01-2014 13:17 Как я теперь люблю Скачать торрент  

Как я теперь люблю / How I Live Now

«Даже третья мировая не одолеет первую любовь»

  • Год выпуска:2013
  • Страна:Великобритания
  • Жанр:фэнтези, драма, приключения

  • Продолжительность: 01:41:12
  • Перевод:Авторское (одноголосое) [А. Матвеев aka Doktor_Joker]+Оригинал

  • Субтитры: Русские
    • Режиссер:Кевин МакДональд / Kevin Macdonald
    • Сценарий: Джереми Брок / Jeremy Brock, Тони Гризони / Tony Grisoni, Пенелопа Скиннер / Penelope Skinner, Мэг Рософф / Meg Rosoff
    • Продюсер: Джон Батсек / John Battsek, Аласдер Флинд / Alasdair Flind, Эндрю Руэманн / Andrew Ruhemann, Чарльз Стил / Charles Steel, Найджел Уильямс / Nigel Williams

  • В ролях:Сирша Ронан (Daisy), Том Холлэнд (Isaac), Джордж МакКэй (Eddie), Харли Бёрд (Piper), Дэнни МакЭвой (Joe), Анна Чэнселлор (Aunt Penn), Джонатан Рагман (News Reporter), Кори Джонсон (Consular Official), Даррен Морфитт (Sergeant), Стелла Гонет (Mrs. McEvoy), Дес МакАлир (Major McEvoy), Софи Стэнтон (Woman in Truck)
    • Описание:
      Действие разворачивается в недалеком будущем. Пятнадцатилетняя Дэйзи приезжает из Нью-Йорка в Лондон к тете с дядей. И влюбляется без памяти в своего кузена Эдмонда. Но на пути первой любви встает внезапно разворачивающаяся Третья Мировая Война.


    Мировая премьера:10 сентября 2013

    • Качество:BDRip 1080p
    • Формат:MKV
    • Видео кодек: AVC
    • Аудио кодек: DTS,AC3
    • Видео: 1920x1040 (16:9), 23.976 fps, 9 308 Kbps (0.194 bit/pixel)
    • Аудио: AC-3, 48.0 KHz, 6 ch, 384 Kbps, CBR (Russian)
    • Аудио2: : DTS, 48.0 KHz, 6 ch, 1 510 Kbps, CBR (English)


    Код:

    Общее
    Уникальный идентификатор                 : 215932040482466013056435566096637391779 (0xA272FF8EBD4F67FE862AEA15704673A3)
    Полное имя                               : D:ТорентыHow I Live Now.1080p._Piratbit.net.mkv
    Формат                                   : Matroska
    Версия формата                           : Version 4 / Version 2
    Размер файла                             : 7,92 Гбайт
    Продолжительность                        : 1 ч. 41 м.
    Общий поток                              : 11,2 Мбит/сек
    Название фильма                          : Release for Piratbit.net_R.G. HD-Films
    Дата кодирования                         : UTC 2014-01-25 12:57:02
    Программа кодирования                    : mkvmerge v6.4.1 ('Omega Point') built on Sep 16 2013 22:05:10
    Библиотека кодирования                   : libebml v1.3.0 + libmatroska v1.4.1

    Видео
    Идентификатор                            : 1
    Формат                                   : AVC
    Формат/Информация                        : Advanced Video Codec
    Профиль формата                          : High@L4.0
    Параметр CABAC формата                   : Да
    Параметр ReFrames формата                : 4 кадра
    Идентификатор кодека                     : V_MPEG4/ISO/AVC
    Продолжительность                        : 1 ч. 41 м.
    Битрейт                                  : 9308 Кбит/сек
    Ширина                                   : 1920 пикселей
    Высота                                   : 1040 пикселей
    Соотношение сторон                       : 1,85:1
    Режим частоты кадров                     : Постоянный
    Частота кадров                           : 23,976 кадра/сек
    Цветовое пространство                    : YUV
    Субдискретизация насыщенности            : 4:2:0
    Битовая глубина                          : 8 бит
    Тип развёртки                            : Прогрессивная
    Бит/(Пиксели*Кадры)                      : 0.194
    Размер потока                            : 6,42 Гбайт (81%)
    Заголовок                                : Release for Piratbit.net_R.G. HD-Films
    Библиотека кодирования                   : x264 core 140 r2377 1ca7bb9
    Настройки программы                      : cabac=1 / ref=4 / deblock=1:0:0 / analyse=0x3:0x133 / me=umh / subme=8 / psy=1 / psy_rd=1.00:0.00 / mixed_ref=1 / me_range=16 / chroma_me=1 / trellis=1 / 8x8dct=1 / cqm=0 / deadzone=21,11 / fast_pskip=0 / chroma_qp_offset=-2 / threads=18 / lookahead_threads=3 / sliced_threads=0 / nr=0 / decimate=1 / interlaced=0 / bluray_compat=0 / constrained_intra=0 / bframes=3 / b_pyramid=2 / b_adapt=2 / b_bias=0 / direct=3 / weightb=1 / open_gop=0 / weightp=2 / keyint=250 / keyint_min=23 / scenecut=40 / intra_refresh=0 / rc_lookahead=50 / rc=2pass / mbtree=1 / bitrate=9308 / ratetol=1.0 / qcomp=0.60 / qpmin=0 / qpmax=69 / qpstep=4 / cplxblur=20.0 / qblur=0.5 / ip_ratio=1.40 / aq=1:1.00
    Язык                                     : English
    Default                                  : Да
    Forced                                   : Нет

    Аудио #1
    Идентификатор                            : 2
    Формат                                   : AC-3
    Формат/Информация                        : Audio Coding 3
    Расширение режима                        : CM (complete main)
    Параметр Endianness формата              : Big
    Идентификатор кодека                     : A_AC3
    Продолжительность                        : 1 ч. 41 м.
    Вид битрейта                             : Постоянный
    Битрейт                                  : 384 Кбит/сек
    Каналы                                   : 6 каналов
    Расположение каналов                     : Front: L C R, Side: L R, LFE
    Частота                                  : 48,0 КГц
    Битовая глубина                          : 16 бит
    Метод сжатия                             : С потерями
    Размер потока                            : 278 Мбайт (3%)
    Язык                                     : Russian
    Default                                  : Нет
    Forced                                   : Нет

    Аудио #2
    Идентификатор                            : 3
    Формат                                   : DTS
    Формат/Информация                        : Digital Theater Systems
    Режим                                    : 16
    Параметр Endianness формата              : Big
    Идентификатор кодека                     : A_DTS
    Продолжительность                        : 1 ч. 41 м.
    Вид битрейта                             : Постоянный
    Битрейт                                  : 1509 Кбит/сек
    Каналы                                   : 6 каналов
    Расположение каналов                     : Front: L C R, Side: L R, LFE
    Частота                                  : 48,0 КГц
    Битовая глубина                          : 24 бит
    Метод сжатия                             : С потерями
    Размер потока                            : 1,07 Гбайт (13%)
    Язык                                     : English
    Default                                  : Нет
    Forced                                   : Нет

    Текст
    Идентификатор                            : 4
    Формат                                   : UTF-8
    Идентификатор кодека                     : S_TEXT/UTF8
    Идентификатор кодека/Информация          : UTF-8 Plain Text
    Default                                  : Да
    Forced                                   : Нет

    Меню
    00:00:00.000                             : en:00:00:00.000
    00:09:35.784                             : en:00:09:35.784
    00:15:08.991                             : en:00:15:08.991
    00:23:33.412                             : en:00:23:33.412
    00:34:03.959                             : en:00:34:03.959
    00:39:59.731                             : en:00:39:59.731
    00:49:25.504                             : en:00:49:25.504
    00:57:39.539                             : en:00:57:39.539
    01:03:09.953                             : en:01:03:09.953
    01:13:23.566                             : en:01:13:23.566
    01:25:49.311                             : en:01:25:49.311
    01:38:27.401                             : en:01:38:27.401


    Скриншоты:


    Релиз подготовлен специально для Piratbit.net. Синхронизация звука и видео by Vetal
    pb.wtf



  • Скачать Как я теперь люблю через торрент http://i4.imageban.ru/out/2014/01/25/6fe234f243e74a39bfe1539cd886ab5e.png Скачать фильм Как я теперь люблю через торрент бесплантно в хорошем качестве Описание:Действие разворачивается в недалеком будущем. Пятнадцатилетняя Дэйзи приезжает из Нью-Йорка в Лондон к тете с дядей. И влюбляется ... 10 10 6
    Info! Золотая раздача, скачанное не засчитывается.
    Торрент: Зарегистрирован [2014-01-25 13:17] · скачан: 103 раз
    Статус: √ проверено
    Размер: 7.92 GB
    Как cкачать? Как скачать Как я теперь люблю через торрент | qTorrent

    % Раздел Тема Автор DL S | L
    Фильмы 2013 [DVDrip, WEB-DLRip, HDrip] [ 1.46 GB ] Как я теперь люблю / Как я теперь живу / How I Live Now [2013 BDRip-AVC] MVO [] potroks Скачать
    1 | 0
    Фильмы 2013 [DVDrip, WEB-DLRip, HDrip] [ 1.36 GB ] Как я теперь люблю / How I Live Now [ 2013 HDRip ] [] Ворон Скачать
    1 | 0
    Фильмы [HD 720p, 1080p] (Хороший звук DUB, MVO) [ 8.47 GB ] Как я теперь люблю / How I Live Now [ 2013 BDRip 1080p ] [] Ворон Скачать
    1 | 0
    Фильмы с авторской озвучкой [ 1.46 GB ] Как я теперь люблю / Как я теперь живу / How I Live Now [2013 BDRip-AVC] AVO + Sub potroks Скачать
    1 | 0
    Фильмы 2013 [DVDrip, WEB-DLRip, HDrip] [ 1.46 GB ] Как я теперь люблю / How I Live Now [ 2013 HDRip ] AVO [А. Матвеев aka Doktor_Joker] Ворон Скачать
    1 | 0

    28-11-2019 20:33  

    Отключить всю рекламу на сайте

    25-01-2014 13:47 Как я теперь люблю Скачать торрент  

    и давно live переводится как "любовь"?pb.wtf



    20-02-2014 19:42 Как я теперь люблю Скачать торрент  

    sergunka писал(а):

    и давно live переводится как "любовь"?

    Автор просто взял отсюда перевод фильма - kinopoisk.ru/film/655578pb.wtf



    03-05-2014 08:42 Как я теперь люблю Скачать торрент  

    Встаньте на раздачу, очень хочу посмотреть!pb.wtf



      Дорогой пользователь! Огромная просьба, поблагодарите релизера, оцените раздачу и оставьте свои комментарий, если Вы скачали Как я теперь люблю через торрент бесплатно! Внесите свою лепту в развитие PiratBit!
      Комментировать посты могут только пользователи прошедшие не сложную регистрацию
      Показать сообщения:    

      Как я теперь люблю через торрент
      Скачать бесплатно Как я теперь люблю
      Как я теперь люблю скачать торрент
      Как я теперь люблю смотреть онлайн
      Cкачать фильм Как я теперь люблю бесплатно
      Как я теперь люблю скачать торрент в хорошем качестве
      Как я теперь люблю смотреть онлайн бесплатно в хорошем качестве


      Вы не можете начинать темы
      Вы не можете отвечать на сообщения
      Вы не можете редактировать свои сообщения
      Вы не можете удалять свои сообщения
      Вы не можете голосовать в опросах
      Вы не можете прикреплять файлы к сообщениям
      Вы можете скачивать файлы