Ссылка на приватное зеркало нашего сайта всего за 1$. Внимание количество ограничено!!!

2 сезон

iTunes

1 сезон

1

2 сезон

2 сезон

iTunes

1 сезон

RePack

30

Ultimate

ВАЖНО

ИГРА 18+

pack

RePack

MK11
pack

Забери бонус

RePack

jed

!!Акция!!

Alien_Rage

RePack

fifa19

RePack

Assassins Creed: Odyssey

RePack

NEED FOR SPEED™ PAYBACK

4 сезон

9 сезон

Бесстыжие 9 сезон

Все сериалы

все сериалы на PB.wtf

RePack

FAR CRY 5
  

Дракула /1 сезон: 1-10 серии из 10 / Dracula (Энди Годдар, Ник Мерфи, Стив Шилл) [2013 г., Мистическая драма, ужасы, вампиры, WEB-DL 720p, Профессиональный двухголосый] [NewStudio] pb.wtf

Дракула через торрент pb.wtf

Размер: 14.23 GB | Добавлен: 6 лет 10 мес. назад | Торрент скачан:119 раз
Скачать  

25-01-2014 19:37 Дракула Скачать торрент  

Дракула / Dracula

Год выпуска: 2013
Страна: США
Выпущено: Carnival Film & Television, Flame Ventures, NBC Universal Television
Жанр: Мистическая драма, ужасы, вампиры
Продолжительность: 10 x ~ 00:43:00
Перевод: Профессиональный двухголосый |Бяко Рекордс (Константин Погодаев, Анна Тух)|
Субтитры: Russian |Форсированные (перевод надписей)|, English
Релиз: MEKCINFO & NewStudio при поддержке SEEDOFF
Перевод: Группа сайта MEKCINFO (Mekc, Eradan, katrinus, valerie4, Tyance)

Режиссер: Энди Годдар Ник Мерфи Стив Шилл
Продюссер: Ирен Барнс, Колин Кэллэндер, Брайан Донован
Сценарий: Коул Хэддон, Брэм Стокер, Том Кривс
Премьера в мире: 25 октября 2013

IMDB 7.60 (10 343)


В ролях: Джонатан Рис-Майерс, Оливер Джексон-Коэн, Джессика Де Гау, Томас Кречманн, Кэти МакГрат, Нонсо Анози, Виктория Смёрфит, Бен Майлз

Описание: Конец 19-го века. Таинственный Дракула прибыл в Лондон, выдавая себя за американского предпринимателя, который хочет привнести современную науку в викторианское общество. Он особенно заинтересован в новой технологии электричества, которая обещает сделать ночь светлее, что полезно для тех, кто избегает солнца...

Качество: WEB-DL 720p
Формат: MKV
Видео кодек: AVC
Аудио кодек: AC3
Видео: MPEG-4 AVC, ~ 4 054 Kbps, 1280х720@960x720 (16:9), 25.000 fps, Bits/(Pixel*Frame): 0.235
Аудио#1: Russian: AC-3, 384 Kbps, 6 ch, 48.0 KHz |DVO (Byako Records)|
Аудио#2: English: AC-3, 384 Kbps, 6 ch, 48.0 KHz |Original|
General
Unique ID : 203085398403585877565846144401533359165 (0x98C8D3338C95D5BAA05A0E4D5CE8D43D)
Complete name : /etc/seedbox/home/kep/data/Дракула (1 сезон, MEKC.INFO & NewStudio, 720p)/Dracula.S01E01[MEKC.INFO]&[NewStudio.TV].720p.PROPER.mkv
Format : Matroska
Format version : Version 4 / Version 2
File size : 1.48 GiB
Duration : 42mn 56s
Overall bit rate : 4 920 Kbps
Movie name : Dracula - S1 - MEKC.INFO & NewStudio.TV
Encoded date : UTC 2013-11-02 17:15:29
Writing application : mkvmerge v6.2.0 ('Promised Land') built on Apr 28 2013 12:22:01
Writing library : libebml v1.3.0 + libmatroska v1.4.0

Video
ID : 1
Format : AVC
Format/Info : Advanced Video Codec
Format profile : Main@L3.1
Format settings, CABAC : No
Format settings, ReFrames : 2 frames
Codec ID : V_MPEG4/ISO/AVC
Duration : 42mn 56s
Bit rate : 4 054 Kbps
Width : 960 pixels
Height : 720 pixels
Display aspect ratio : 16:9
Frame rate mode : Constant
Frame rate : 25.000 fps
Color space : YUV
Chroma subsampling : 4:2:0
Bit depth : 8 bits
Scan type : Progressive
Bits/(Pixel*Frame) : 0.235
Stream size : 1.22 GiB (82%)
Title : 1. Pilot / Dracula - MEKC.INFO & NewStudio.TV
Language : English
Default : Yes
Forced : No
Color primaries : BT.709
Transfer characteristics : BT.709
Matrix coefficients : BT.709

Audio #1
ID : 2
Format : AC-3
Format/Info : Audio Coding 3
Mode extension : CM (complete main)
Format settings, Endianness : Big
Codec ID : A_AC3
Duration : 42mn 56s
Bit rate mode : Constant
Bit rate : 384 Kbps
Channel count : 6 channels
Channel positions : Front: L C R, Side: L R, LFE
Sampling rate : 48.0 KHz
Bit depth : 16 bits
Compression mode : Lossy
Stream size : 118 MiB (8%)
Title : DVO (Byako Records)
Language : Russian
Default : Yes
Forced : No

Audio #2
ID : 3
Format : AC-3
Format/Info : Audio Coding 3
Mode extension : CM (complete main)
Format settings, Endianness : Big
Codec ID : A_AC3
Duration : 42mn 56s
Bit rate mode : Constant
Bit rate : 384 Kbps
Channel count : 6 channels
Channel positions : Front: L C R, Side: L R, LFE
Sampling rate : 48.0 KHz
Bit depth : 16 bits
Compression mode : Lossy
Stream size : 118 MiB (8%)
Title : Original
Language : English
Default : No
Forced : No

Text #1
ID : 4
Format : UTF-8
Codec ID : S_TEXT/UTF8
Codec ID/Info : UTF-8 Plain Text
Language : Russian
Default : No
Forced : No

Text #2
ID : 5
Format : UTF-8
Codec ID : S_TEXT/UTF8
Codec ID/Info : UTF-8 Plain Text
Language : English
Default : No
Forced : No

Text #3
ID : 6
Format : ASS
Codec ID : S_TEXT/ASS
Codec ID/Info : Advanced Sub Station Alpha
Compression mode : Lossless
Title : Forced
Language : Russian
Default : Yes
Forced : Yes
pb.wtf



Скачать Дракула через торрент http://i4.imageban.ru/out/2014/01/25/3d3b252fc2692a69c85e3ad85806a66c.png Скачать фильм Дракула через торрент бесплантно в хорошем качестве Описание: Конец 19-го века. Таинственный Дракула прибыл в Лондон, выдавая себя за американского предпринимателя, который хочет привнести ... 10 10 14
Info! Золотая раздача, скачанное не засчитывается.
Торрент: Зарегистрирован [2014-01-25 19:37] · скачан: 119 раз
Статус: √ проверено
Размер: 14.23 GB
Как cкачать? Как скачать Дракула через торрент | qTorrent

% Раздел Тема Автор DL S | L
Зарубежные сериалы [ 30.42 GB ] Дракула / Dracula / Сезон: 1 / Серии: 1-3 из 3 [2020 WEB-DL 1080p] MVO [TVShows] bober100 Скачать
1 | 0
Зарубежные сериалы [ 9.27 GB ] Дракула / Dracula / Сезон: 1 / Серии: 1-3 из 3 [2020 WEB-DL 1080p] MVO [Jaskier] bober100 Скачать
1 | 0
Зарубежные сериалы [ 9.83 GB ] Дракула / Dracula / Сезон: 1 / Серии: 1-3 из 3 [2020 WEB-DL 1080p] [MVO] killermax2013 Скачать
1 | 0
Зарубежные сериалы [ 31.57 GB ] Дракула / Dracula / Сезон: 1 / Серии: 1-3 из 3 [2020 WEB-DL 1080p] MVO [AlexFilm] bober100 Скачать
1 | 0
Зарубежные сериалы [ 30.9 GB ] Дракула / Dracula / Сезон: 1 / Серии: 1-3 из 3 [2020 WEB-DL 1080p] DUB [Невафильм / Netflix] bober100 Скачать
1 | 0
Зарубежные сериалы [ 14.22 GB ] Дракула / Dracula / Сезон: 1 / Серии: 1-10 из 10 [2013 WEB-DL 720p] MVO [AlexFilm] bober100 Скачать
1 | 0
Зарубежные сериалы [ 17.08 GB ] Дракула / Dracula / Сезон: 1 / Серии: 1-10 из 10 [2013 WEB-DL 1080p] MVO [AlexFilm] bober100 Скачать
1 | 0

28-11-2019 20:33  

Отключить всю рекламу на сайте

07-08-2015 21:52 Дракула Скачать торрент  

Отличный сериал! Интересно, а будет ли 2 сезон?pb.wtf



30-08-2015 21:00 Дракула Скачать торрент  

Brind19 писал(а):

Отличный сериал! Интересно, а будет ли 2 сезон?

не будет. сериал закрыт уже наверное как год/полтора.pb.wtf



21-06-2019 09:25 Дракула Скачать торрент  

Подкиньте скорости пожалуйста!!!pb.wtf



21-06-2019 09:52 Дракула Скачать торрент  

Нарооооооооод,дайте скорости!!!!!!!!!!!pb.wtf



    Дорогой пользователь! Огромная просьба, поблагодарите релизера, оцените раздачу и оставьте свои комментарий, если Вы скачали Дракула через торрент бесплатно! Внесите свою лепту в развитие PiratBit!
    Комментировать посты могут только пользователи прошедшие не сложную регистрацию
    Показать сообщения:    

    Дракула через торрент
    Скачать бесплатно Дракула
    Дракула скачать торрент
    Дракула смотреть онлайн
    Cкачать фильм Дракула бесплатно
    Дракула скачать торрент в хорошем качестве
    Дракула смотреть онлайн бесплатно в хорошем качестве


    Вы не можете начинать темы
    Вы не можете отвечать на сообщения
    Вы не можете редактировать свои сообщения
    Вы не можете удалять свои сообщения
    Вы не можете голосовать в опросах
    Вы не можете прикреплять файлы к сообщениям
    Вы можете скачивать файлы