Ссылка на приватное зеркало нашего сайта всего за 1$. Внимание количество ограничено!!!

2 сезон

iTunes

1 сезон

1

iTunes

iTunes

iTunes

1 сезон

RePack

30

ИГРА 18+

pack

ВАЖНО

!!Акция!!

Alien_RageХит недели

RePack

MK11
pack

Забери бонус

RePack

jed

!!Акция!!

Alien_Rage

RePack

fifa19

RePack

Assassins Creed: Odyssey

RePack

NEED FOR SPEED™ PAYBACK

4 сезон

9 сезон

Бесстыжие 9 сезон

Все сериалы

все сериалы на PB.wtf

RePack

FAR CRY 5
  

Морозилка / Freezer (Микаэл Саломон / Mikael Salomon) [ 2014 , США , боевик, триллер , BDRip 1080p]VO+Оригинал pb.wtf

Морозилка через торрент pb.wtf

Размер: 5.68 GB | Добавлен: 6 лет 9 мес. назад | Торрент скачан:102 раза
Скачать  

25-01-2014 20:20 Морозилка Скачать торрент  

Морозилка / FreezerГод выпуска: 2014
Страна: США
Жанр: боевик, триллер
Продолжительность: 01:22:10
Перевод: Любительский (одноголосый)den904+Любительский (одноголосый закадровый) Хихикающий доктор
Субтитры: Нет
Режиссер: Микаэл Саломон / Mikael Salomon
В ролях: Дилан МакДермотт (Robert), Питер Фачинелли (Detective Sam Gurov), Юлия Снигирь (Alisa), Андрей Ивченко (Kiril), Паскаль Петарди (Vadim), Милан Малисич (Stepan), Дэвид МакНалли (Detective Al Dorian), Маркус Парило (Oleg)
Описание:
Роберт Сондерс, обычный механик, потерял сознание на своем дне рождения и очнулся в морозильнике. Появившиеся русские бандиты начинают обвинять его в краже 8 миллионов долларов. Чтоб Роберт быстрее отдал деньги, бандиты начинают пытать его холодом. Температура падает. Страх растет. Перед Робертом встает выбор, замерзнуть от холода или быть убитым русскими бандитами,так как его все равно живым не отпустят. Но может есть третий выбор..
Рейтинг
imdb.com: 5.90 (16)
MPAA: R - Лицам до 17 лет обязательно присутствие взрослого
Качество: BDRip1080p
Формат: MKV
Видео кодек: AVC
Аудио кодек: AC3/MP3
Видео: AVC, 1920x808 (2.40:1), 8877 kbps, 23,976 fps, 0,239 bpp
Аудио №1: русский / MP3 / 2.0 / 48 kHz / 192 kbps / || den904
Аудио №2: русский / MP3 / 2.0 / 44 kHz / 192 kbps / || Хихикающий доктор
Аудио №3: английский / AC3 / 5.1 / 48 kHz / 640 kbps / 16 bit

General
Unique ID : 226367858829512411543117530154066832146 (0xAA4CDD2077915EF1B9B183D7AB88EB12)
Complete name : D:ТорентыFreezer_1080p _Piratbit.net.mkv
Format : Matroska
Format version : Version 4 / Version 2
File size : 5.68 GiB
Duration : 1h 22mn
Overall bit rate : 9 901 Kbps
Movie name : Release for Piratbit.net_R.G. HD-Films
Encoded date : UTC 2014-01-25 20:07:28
Writing application : mkvmerge v6.4.1 ('Omega Point') built on Sep 16 2013 22:05:10
Writing library : libebml v1.3.0 + libmatroska v1.4.1

Video
ID : 1
Format : AVC
Format/Info : Advanced Video Codec
Format profile : High@L4.0
Format settings, CABAC : Yes
Format settings, ReFrames : 5 frames
Codec ID : V_MPEG4/ISO/AVC
Duration : 1h 22mn
Bit rate : 8 877 Kbps
Width : 1 920 pixels
Height : 808 pixels
Display aspect ratio : 2.40:1
Frame rate : 23.976 fps
Color space : YUV
Chroma subsampling : 4:2:0
Bit depth : 8 bits
Scan type : Progressive
Bits/(Pixel*Frame) : 0.239
Stream size : 4.98 GiB (88%)
Title : Release for Piratbit.net_R.G. HD-Films
Writing library : x264 core 140 r2377 1ca7bb9
Encoding settings : cabac=1 / ref=5 / deblock=1:0:0 / analyse=0x3:0x133 / me=umh / subme=7 / psy=1 / psy_rd=1.00:0.00 / mixed_ref=1 / me_range=16 / chroma_me=1 / trellis=1 / 8x8dct=1 / cqm=0 / deadzone=21,11 / fast_pskip=0 / chroma_qp_offset=-2 / threads=18 / lookahead_threads=3 / sliced_threads=0 / nr=0 / decimate=1 / interlaced=0 / bluray_compat=0 / constrained_intra=0 / bframes=3 / b_pyramid=2 / b_adapt=2 / b_bias=0 / direct=3 / weightb=1 / open_gop=0 / weightp=2 / keyint=250 / keyint_min=23 / scenecut=40 / intra_refresh=0 / rc_lookahead=50 / rc=2pass / mbtree=1 / bitrate=8877 / ratetol=1.0 / qcomp=0.60 / qpmin=0 / qpmax=69 / qpstep=4 / cplxblur=20.0 / qblur=0.5 / ip_ratio=1.40 / aq=1:1.00
Language : English
Default : Yes
Forced : No

Audio #1
ID : 2
Format : MPEG Audio
Format version : Version 1
Format profile : Layer 3
Mode : Joint stereo
Codec ID : A_MPEG/L3
Codec ID/Hint : MP3
Duration : 1h 22mn
Bit rate mode : Constant
Bit rate : 192 Kbps
Channel(s) : 2 channels
Sampling rate : 48.0 KHz
Compression mode : Lossy
Stream size : 113 MiB (2%)
Writing library : LAME3.99.4
Language : Russian
Default : No
Forced : No

Audio #2
ID : 3
Format : MPEG Audio
Format version : Version 1
Format profile : Layer 3
Codec ID : A_MPEG/L3
Codec ID/Hint : MP3
Duration : 1h 22mn
Bit rate mode : Constant
Bit rate : 192 Kbps
Channel(s) : 2 channels
Sampling rate : 44.1 KHz
Compression mode : Lossy
Stream size : 113 MiB (2%)
Language : Russian
Default : No
Forced : No

Audio #3
ID : 4
Format : AC-3
Format/Info : Audio Coding 3
Mode extension : CM (complete main)
Codec ID : A_AC3
Duration : 1h 22mn
Bit rate mode : Constant
Bit rate : 640 Kbps
Channel(s) : 6 channels
Channel positions : Front: L C R, Side: L R, LFE
Sampling rate : 48.0 KHz
Bit depth : 16 bits
Compression mode : Lossy
Stream size : 376 MiB (6%)
Language : English
Default : No
Forced : No

Menu
00:00:00.000 : en:00:00:00.000
00:08:02.732 : en:00:08:02.732
00:15:16.874 : en:00:15:16.874
00:21:51.227 : en:00:21:51.227
00:32:45.672 : en:00:32:45.672
00:41:03.670 : en:00:41:03.670
00:44:45.683 : en:00:44:45.683
00:53:27.663 : en:00:53:27.663
00:58:06.108 : en:00:58:06.108
01:09:29.999 : en:01:09:29.999
01:13:34.118 : en:01:13:34.118
01:19:56.041 : en:01:19:56.041


Релиз подготовлен специально для Piratbit.net. Синхронизация звука и видео by Vetal
pb.wtf



Скачать Морозилка через торрент http://i2.imageban.ru/out/2014/01/26/4ae4b9e8c5aef9036d7413dbcb56b6f3.jpg Скачать фильм Морозилка через торрент бесплантно в хорошем качестве Описание: Роберт Сондерс, обычный механик, потерял сознание на своем дне рождения и очнулся в морозильнике. Появившиеся русские бандиты ... 9.4 10 10
Info! Золотая раздача, скачанное не засчитывается.
Торрент: Зарегистрирован [2014-01-25 20:20] · скачан: 102 раз
Статус: T временная
Размер: 5.68 GB
Как cкачать? Как скачать Морозилка через торрент | qTorrent

28-11-2019 20:33  

Отключить всю рекламу на сайте

    Дорогой пользователь! Огромная просьба, поблагодарите релизера, оцените раздачу и оставьте свои комментарий, если Вы скачали Морозилка через торрент бесплатно! Внесите свою лепту в развитие PiratBit!
    Комментировать посты могут только пользователи прошедшие не сложную регистрацию
    Показать сообщения:    

    Морозилка через торрент
    Скачать бесплатно Морозилка
    Морозилка скачать торрент
    Морозилка смотреть онлайн
    Cкачать фильм Морозилка бесплатно
    Морозилка скачать торрент в хорошем качестве
    Морозилка смотреть онлайн бесплатно в хорошем качестве


    Вы не можете начинать темы
    Вы не можете отвечать на сообщения
    Вы не можете редактировать свои сообщения
    Вы не можете удалять свои сообщения
    Вы не можете голосовать в опросах
    Вы не можете прикреплять файлы к сообщениям
    Вы можете скачивать файлы