Ссылка на приватное зеркало всего за 1$. Внимание количество ограничено!!!


iTunes

1+1

iTunes

мы

WEB-DL

1

iTunes

Чернобыль

iTunes

Ральф против интернета

Лицензия

ПШазам

Лицензия

Оно 2

WEB-DL

30
pack

Вам бонус

ВАЖНО

!!Акция!!

Alien_RageХит недели

RePack

Resident Evil 21

ИГРА 18+

pack

RePack

jed

!!Акция!!

Alien_Rage

RePack

fifa19

RePack

Assassins Creed: Odyssey

RePack

NEED FOR SPEED™ PAYBACK

4 сезон

9 сезон

Бесстыжие 9 сезон

Все сериалы

все сериалы на PB.wtf

RePack

FAR CRY 5
Ребята, катастрофически не хватает 1900р. для оплаты серверов за Октябрь (всвязи с блокировками трафик упал в 3 раза), 1-2р., выручайте.
  

Любовь с подходящим незнакомцем / Love with the Proper Stranger (Роберт Маллиган / Robert Mulligan) [1963, драма, мелодрама, комедия, WEB-DLRip] [AVO] (Ю.Сербин) pb.wtf

Любовь с подходящим незнакомцем через торрент pb.wtf

Размер: 1.37 GB | Добавлен: 5 лет 10 мес. назад | Торрент скачан:9 раз
Скачать  

26-01-2014 12:10 Любовь с подходящим незнакомцем Скачать торрент  

Любовь с подходящим незнакомцем / Love with the Proper Stranger

Год выпуска: 1963
Страна: США
Студия: Paramount Pictures
Жанр: драма, мелодрама, комедия
Продолжительность: 01:40:14
Перевод: Авторский (одноголосный, закадровый)[Юрий Сербин]
Субтитры: нет
Режиссер: Роберт Маллиган / Robert Mulligan
В ролях: Стив Маккуин /Steve McQueen/, Натали Вуд /Natalie Wood/, Эди Адамс /Edie Adams/, Хершел Бернарди /Herschel Bernardi/, Энн Хегира /Anne Hegira/
Описание: Энджи Россини (Натали Вуд), продавщица из сети универмагов "Мейси", делает неожиданное открытие: она, итальянская католичка, беременна, причем от человека, с которым провела всего одну ночь! Чтобы скрыть тайну от семьи и двух братьев, которые ревностно следят за ее благочестием, Энджи с твердым намерением сделать аборт отправляется на поиски того самого человека на одну ночь - бесшабашного музыканта Рокки Папасано (Стив Маккуин). Эта встреча таит в себе массу сюрпризов…


Качество видео: WEB-DLRip (Исх. WEB-DL>DVD5 (Custom)]
Формат: AVI
Видео кодек: XviD
Аудио кодек: AC3
Видео: 720x400 (1.80:1), 23.976 fps, XviD build 50 ~1688 kbps avg, 0.24 bit/pixel
Аудио: 48 kHz, AC3 Dolby Digital, 2/0 (L,R) ch, ~256.00 kbps avg
Автор рипа: killermax2013
Огромное спасибо людям благодаря которым состоялся перевод и озвучка данного фильма!!!
c рутрекера: denis_mgn_1987, Alec Storm, Atrox777, jasenka, SamsonSS, Lafajet, sever-, Магда, zeleniydzhan, eagle64
с клуба е180: Nadoelo, xerman13, Jiraya87, luka69, Guyver

За исходный WEB-DL>DVD5 (Custom) спасибо Alec Storm с рутрекера!

Цитата:

За перевод и озвучку спасибо - Юрию Сербину
За реавторинг диска спасибо - Нордер
За исходник спасибо - funny77
За русские сабы - Ийон_Тихий

Оскар, 1964 год
Номинации (5):
Лучшая женская роль (Натали Вуд)
Лучший оригинальный сценарий
Лучшая работа оператора (ч/б фильмы)
Лучшая работа художника (ч/б фильмы)
Лучшая работа художника по костюмам (ч/б фильмы)


Золотой глобус, 1964 год
Номинации (2):
Лучшая женская роль (драма) (Натали Вуд)
Лучшая мужская роль (драма) (Стив МакКуин)
General
Complete name : E:Love with the Proper Stranger.1963.WEB-DLRip.[AVO] (SERBIN).avi
Format : AVI
Format/Info : Audio Video Interleave
File size : 1.37 GiB
Duration : 1h 40mn
Overall bit rate : 1 954 Kbps
Writing application : VirtualDubMod 1.5.10.3 | www.virtualdub-fr.org || (build 2550/release)
Writing library : VirtualDubMod build 2550/release

Video
ID : 0
Format : MPEG-4 Visual
Format profile : Advanced Simple@L5
Format settings, BVOP : 1
Format settings, QPel : No
Format settings, GMC : No warppoints
Format settings, Matrix : Default (MPEG)
Codec ID : DX50
Codec ID/Hint : DivX 5
Duration : 1h 40mn
Bit rate : 1 689 Kbps
Width : 720 pixels
Height : 400 pixels
Display aspect ratio : 16:9
Frame rate : 23.976 fps
Color space : YUV
Chroma subsampling : 4:2:0
Bit depth : 8 bits
Scan type : Progressive
Compression mode : Lossy
Bits/(Pixel*Frame) : 0.245
Stream size : 1.18 GiB (86%)
Writing library : XviD 1.2.1 (UTC 2008-12-04)

Audio
ID : 1
Format : AC-3
Format/Info : Audio Coding 3
Mode extension : CM (complete main)
Codec ID : 2000
Duration : 1h 40mn
Bit rate mode : Constant
Bit rate : 256 Kbps
Channel(s) : 2 channels
Channel positions : Front: L R
Sampling rate : 48.0 KHz
Bit depth : 16 bits
Compression mode : Lossy
Stream size : 184 MiB (13%)
Alignment : Split accross interleaves
Interleave, duration : 42 ms (1.00 video frame)
Interleave, preload duration : 500 ms
pb.wtf



Скачать Любовь с подходящим незнакомцем через торрент http://i33.fastpic.ru/big/2014/0126/f3/9d2329dbe12263b1b9f8c4a317ef72f3.jpg Скачать фильм Любовь с подходящим незнакомцем через торрент бесплантно в хорошем качестве Описание: Энджи Россини (Натали Вуд), продавщица из сети универмагов "Мейси", делает неожиданное открытие: она, итальянская католичка, ... 10 10 2
Info! Золотая раздача, скачанное не засчитывается.
Торрент: Зарегистрирован [2014-01-26 12:10] · скачан: 9 раз
Статус: √ проверено
Размер: 1.37 GB
Как cкачать? Как скачать Любовь с подходящим незнакомцем через торрент | qTorrent

28-11-2019 20:33  

Отключить всю рекламу на сайте

    Дорогой пользователь! Огромная просьба, поблагодарите релизера, оцените раздачу и оставьте свои комментарий, если Вы скачали Любовь с подходящим незнакомцем через торрент бесплатно! Внесите свою лепту в развитие PiratBit!
    Комментировать посты могут только пользователи прошедшие не сложную регистрацию
    Показать сообщения:    

    Любовь с подходящим незнакомцем через торрент
    Скачать бесплатно Любовь с подходящим незнакомцем
    Любовь с подходящим незнакомцем скачать торрент
    Любовь с подходящим незнакомцем смотреть онлайн
    Cкачать фильм Любовь с подходящим незнакомцем бесплатно
    Любовь с подходящим незнакомцем скачать торрент в хорошем качестве
    Любовь с подходящим незнакомцем смотреть онлайн бесплатно в хорошем качестве


    Вы не можете начинать темы
    Вы не можете отвечать на сообщения
    Вы не можете редактировать свои сообщения
    Вы не можете удалять свои сообщения
    Вы не можете голосовать в опросах
    Вы не можете прикреплять файлы к сообщениям
    Вы можете скачивать файлы