MEGA SALE -50% FORZA HORIZON 4 ULTIMATE+ВСЕ DLC+ОНЛАЙН всего за 599р. 299 руб. (супер цена). Внимание количество ограничено!!!

iTunes

1+1

iTunes

мы

iTunes

1

iTunes

Чернобыль

iTunes

Ральф против интернета

Лицензия

ПШазам

Лицензия

Игра престолов

Лицензия

30
pack

ВАЖНО

!!Акция!!

Alien_RageХит недели

RePack

Resident Evil 21

ИГРА 18+

pack

RePack

Metro:Exodus

!!Акция!!

Alien_Rage

RePack

fifa19

RePack

Assassins Creed: Odyssey

RePack

NEED FOR SPEED™ PAYBACK

3 сезон

9 сезон

Бесстыжие 9 сезон

Все сериалы

все сериалы на PB.wtf

RePack

FAR CRY 5
Ребята, катастрофически не хватает 7730р. для оплаты серверов за АВГУСТ (всвязи с блокировками трафик упал в 3 раза), 1-2р., выручайте.
  

Железный крест 2: Штайнер / Steiner - das eiserne kreuz , teil 2 (Эндрю Маклэглин) [1979 г., драма, военный, DVDRip] MVO pb.wtf

Железный крест 2: Штайнер через торрент pb.wtf

Размер: 1.46 GB | Добавлен: 5 лет 7 мес. назад | Торрент скачан:102 раза
Скачать  

26-01-2014 17:33 Железный крест 2: Штайнер Скачать торрент  

Железный крест 2: Штайнер
Год выпуска: 1979
Страна: Великобритания, Германия Palladium Film GmbH Spielfilmproduktion 2 KG, Rapid Film
Жанр: драма, военный
Продолжительность: 01:45:59
Перевод: Профессиональный многоголосый

Режиссер: Эндрю Маклэглин
Продюссер: Вольф С. Хартвиг, Хуберт Луковски, Т. Ричмонд
Сценарий: Дагоберт Линдлау, Питер Бернайс, Тони Уильямсон

Премьера в мире: 1 марта 1979





В ролях: Ричард Бёртон, Рольф Штайнер, Род Стайгер, Хельмут Грим, Клаус Ловитш, Майкл Паркс, Вероника Вендель, Бруно Дитрих

Описание: 1944 год, германский Западный фронт. Немецкие солдаты давно уже сражаются не за Гитлера и не за идеи национал-социализма, а лишь для того, чтобы спасти свою жизнь. ..
Жесткий, немногословный фельдфебель Рольф Штайнер завоевал репутацию бунтаря, не признающего высших чинов, и непререкаемый авторитет в своем отряде. Однако никто, кроме самого Штайнера, не знает, как давно опротивела ему война, и с какой радостью он бы скинул с себя ненавистную форму. Действуя на свой страх и риск, вопреки приказам, любой бой он старается закончить малой кровью, с наименьшими потерями для отряда.

Качество: DVDRip
Формат: AVI
Видео кодек: XviD
Аудио кодек: AC3
Видео: Xvid 704x544, 25.00fps, 1 733 Kbps
Аудио: Dolby AC3, 48000Hz, stereo, 224kbps
Релиз от: zim2001





General
Complete name : D:Cross.of.Iron.2.1979.avi
Format : AVI
Format/Info : Audio Video Interleave
File size : 1.46 GiB
Duration : 1h 45mn
Overall bit rate : 1 967 Kbps
Director : zim2001
Writing application : VirtualDubMod 1.5.10.2 (build 2540/release)

Video
ID : 0
Format : MPEG-4 Visual
Format profile : Advanced Simple@L5
Format settings, BVOP : 1
Format settings, QPel : No
Format settings, GMC : No warppoints
Format settings, Matrix : Custom
Codec ID : XVID
Codec ID/Hint : XviD
Duration : 1h 45mn
Bit rate : 1 733 Kbps
Width : 704 pixels
Height : 544 pixels
Display aspect ratio : 1.294
Frame rate : 25.000 fps
Color space : YUV
Chroma subsampling : 4:2:0
Bit depth : 8 bits
Scan type : Progressive
Compression mode : Lossy
Bits/(Pixel*Frame) : 0.181
Stream size : 1.28 GiB (88%)
Writing library : XviD 1.2.1 (UTC 2008-12-04)

Audio
ID : 1
Format : AC-3
Format/Info : Audio Coding 3
Mode extension : CM (complete main)
Codec ID : 2000
Duration : 1h 45mn
Bit rate mode : Constant
Bit rate : 224 Kbps
Channel(s) : 2 channels
Channel positions : Front: L R
Sampling rate : 48.0 KHz
Bit depth : 16 bits
Compression mode : Lossy
Stream size : 170 MiB (11%)
Alignment : Split accross interleaves
Interleave, duration : 40 ms (1.00 video frame)
Interleave, preload duration : 500 ms

pb.wtf



Скачать Железный крест 2: Штайнер через торрент http://pic.kartinco.top/images/6/224v8.jpg Скачать фильм Железный крест 2: Штайнер через торрент бесплантно в хорошем качестве Описание: 1944 год, германский Западный фронт. Немецкие солдаты давно уже сражаются не за Гитлера и не за идеи национал-социализма, а лишь ... 10 10 3
Info! Золотая раздача, скачанное не засчитывается.
Торрент: Зарегистрирован [2014-01-26 17:33] · скачан: 102 раз
Статус: √ проверено
Размер: 1.46 GB
Как cкачать? Как скачать Железный крест 2: Штайнер через торрент | qTorrent



Последний раз редактировалось: lug30 (2014-01-26 18:27), всего редактировалось 1 раз


>> Регистрируемся здесь <<






Отзывы и комментарии о схеме читаем и пишем здесь: ---> Отзывы и комментарии о схеме

Новые благодарочки в телеграм довольных пользователей:
скриншот   скриншот   скриншот   скриншот   скриншот

26-01-2014 18:00 Железный крест 2: Штайнер Скачать торрент  

lug30 писал(а):

Видео: Xvid 704x544 25.00fps 1 733 Kbps
Аудио: Dolby AC3 48000Hz stereo 224kbps

Не забываем о запятых.pb.wtf



26-01-2014 18:05 Железный крест 2: Штайнер Скачать торрент  

Vetаl писал(а):

lug30 писал(а):

Видео: Xvid 704x544 25.00fps 1 733 Kbps
Аудио: Dolby AC3 48000Hz stereo 224kbps

Не забываем о запятых.

А после проверки модератором ,можно ли исправлять ?
Можно.Замечания не значительно.pb.wtf



    Дорогой пользователь! Огромная просьба, поблагодарите релизера, оцените раздачу и оставьте свои комментарий, если Вы скачали Железный крест 2: Штайнер через торрент бесплатно! Внесите свою лепту в развитие PiratBit!
    Комментировать посты могут только пользователи прошедшие не сложную регистрацию
    Показать сообщения:    

    Железный крест 2: Штайнер через торрент
    Скачать бесплатно Железный крест 2: Штайнер
    Железный крест 2: Штайнер скачать торрент
    Железный крест 2: Штайнер смотреть онлайн
    Cкачать фильм Железный крест 2: Штайнер бесплатно
    Железный крест 2: Штайнер скачать торрент в хорошем качестве
    Железный крест 2: Штайнер смотреть онлайн бесплатно в хорошем качестве


    Вы не можете начинать темы
    Вы не можете отвечать на сообщения
    Вы не можете редактировать свои сообщения
    Вы не можете удалять свои сообщения
    Вы не можете голосовать в опросах
    Вы не можете прикреплять файлы к сообщениям
    Вы можете скачивать файлы