Ссылка на приватное зеркало нашего сайта всего за 1$. Внимание количество ограничено!!!

2 сезон

iTunes

1 сезон

1

2 сезон

2 сезон

iTunes

1 сезон

RePack

30

Новинка

ВАЖНО

ИГРА 18+

pack

RePack

MK11
pack

Забери бонус

RePack

jed

!!Акция!!

Alien_Rage

RePack

fifa19

RePack

Assassins Creed: Odyssey

RePack

NEED FOR SPEED™ PAYBACK

4 сезон

9 сезон

Бесстыжие 9 сезон

Все сериалы

все сериалы на PB.wtf

RePack

FAR CRY 5
  

Битва у Красной скалы 2 / Chi bi xia: Jue zhan tian xia (Джон Ву) [2008 г., Боевик, драма, военный, история, реальные события, BD-Remux, MVO, AVO, Original] pb.wtf

Битва у Красной скалы 2 через торрент pb.wtf

Размер: 28.1 GB | Добавлен: 6 лет 10 мес. назад | Торрент скачан:23 раза
Скачать  

27-01-2014 02:14 Битва у Красной скалы 2 Скачать торрент  

Битва у Красной скалы 2 / Chi bi xia: Jue zhan tian xia

Год выпуска: 2008
Страна: Китай
Жанр: Боевик, драма, военный, история
Продолжительность: 02:21:00
Перевод: Профессиональный + Авторский + Оригинал отдельно
Субтитры: Russian , English

Режиссер: Джон Ву
Продюссер: Тэжэньцэ Чан, Саньпин Хань, Джон Ву
Сценарий: Джон Ву, Кхан Чан, Чэн Куо
Премьера в мире: 8 января 2009

IMDB 7.60 (14 660)


В ролях: Тони Люн Чу Вай, Такеши Канеширо, Чжан Фэнъи, Чжан Чжэнь, Вэй Чжао, Цзюнь Ху, Линь

Описание: Война между Цао Цао (Фэнъи Чжан) и альянсом южан в самом разгаре - последние выиграли одну битву, но впереди решающее сражение, которое, скорее всего, будет разворачиваться на воде. В войсках Цао Цао свирепствует тиф, но бессердечный узурпатор перенаправляет болезнь в стан врагов, после чего альянс разваливается - Лю Бэй (Юн Ю) уводит своих людей, оставляя Чжоу Юя (Тони Люн Чу Вай) без военной поддержки...

Награды:
Азиатская киноакадемия, 2010 год

Победитель (1):
* Самый кассовый режиссер (Джон Ву, Теренс Чанг)

Качество: BD-Remux
Формат: MKV
Видео кодек: AVC
Аудио кодек: AC3 / DTS
Видео: MPEG4 AVC, 25.5 Mbps, 1920x1080, 24fps (0.513 bit/pixel)
Аудио#1: Russian / AC-3, 448 Kbps, 6 ch, 48.0 KHz (Многоголосый)
Аудио#2: Russian / AC-3, 448 Kbps, 6 ch, 48.0 KHz (Авторский - Ю.Сербин)
Аудио#3: China / DTS, 1 510 Kbps, 6 ch, 48.0 KHz (Отдельным файлом)
General
Unique ID : 184331631756662485423340930071135210323 (0x8AACFB1E36FF3417A1316CFD789F4B53)
Complete name : /home/sb753/files/Red_Cliff_2_ REMUX_(2009)/Red_Cliff_2_REMUX_(2009).mkv
Format : Matroska
Format version : Version 2
File size : 26.6 GiB
Duration : 2h 21mn
Overall bit rate mode : Variable
Overall bit rate : 27.0 Mbps
Encoded date : UTC 2009-10-10 14:06:32
Writing application : mkvmerge v2.9.8 ('C'est le bon') built on Aug 13 2009 12:49:06
Writing library : libebml v0.7.7 + libmatroska v0.8.1

Video
ID : 1
Format : AVC
Format/Info : Advanced Video Codec
Format profile : High@L4.1
Format settings, CABAC : Yes
Format settings, ReFrames : 4 frames
Codec ID : V_MPEG4/ISO/AVC
Duration : 2h 21mn
Bit rate mode : Variable
Bit rate : 25.5 Mbps
Maximum bit rate : 30.5 Mbps
Width : 1 920 pixels
Height : 1 080 pixels
Display aspect ratio : 16:9
Frame rate : 24.000 fps
Color space : YUV
Chroma subsampling : 4:2:0
Bit depth : 8 bits
Scan type : Progressive
Bits/(Pixel*Frame) : 0.513
Stream size : 25.2 GiB (95%)
Default : Yes
Forced : Yes
Color primaries : BT.709-5, BT.1361, IEC 61966-2-4, SMPTE RP177
Transfer characteristics : BT.709-5, BT.1361
Matrix coefficients : BT.709-5, BT.1361, IEC 61966-2-4 709, SMPTE RP177

Audio #1
ID : 2
Format : AC-3
Format/Info : Audio Coding 3
Mode extension : CM (complete main)
Format settings, Endianness : Big
Codec ID : A_AC3
Duration : 2h 21mn
Bit rate mode : Constant
Bit rate : 448 Kbps
Channel(s) : 6 channels
Channel positions : Front: L C R, Side: L R, LFE
Sampling rate : 48.0 KHz
Bit depth : 16 bits
Compression mode : Lossy
Stream size : 453 MiB (2%)
Language : Russian
Default : Yes
Forced : Yes

Audio #2
ID : 3
Format : AC-3
Format/Info : Audio Coding 3
Mode extension : CM (complete main)
Format settings, Endianness : Big
Codec ID : A_AC3
Duration : 2h 21mn
Bit rate mode : Constant
Bit rate : 448 Kbps
Channel(s) : 6 channels
Channel positions : Front: L C R, Side: L R, LFE
Sampling rate : 48.0 KHz
Bit depth : 16 bits
Compression mode : Lossy
Stream size : 453 MiB (2%)
Language : Russian
Default : No
Forced : No

Text #1
ID : 4
Format : UTF-8
Codec ID : S_TEXT/UTF8
Codec ID/Info : UTF-8 Plain Text
Language : Russian
Default : No
Forced : No

Text #2
ID : 5
Format : UTF-8
Codec ID : S_TEXT/UTF8
Codec ID/Info : UTF-8 Plain Text
Language : English
Default : No
Forced : No
pb.wtf



Скачать Битва у Красной скалы 2 через торрент http://i1.imageban.ru/out/2014/01/27/d2ee282d74ccdc8f3426f9815dcb7066.png Скачать фильм Битва у Красной скалы 2 через торрент бесплантно в хорошем качестве Описание: Война между Цао Цао (Фэнъи Чжан) и альянсом южан в самом разгаре - последние выиграли одну битву, но впереди решающее сражение, ... 10 10 6
Info! Золотая раздача, скачанное не засчитывается.
Торрент: Зарегистрирован [2014-01-27 02:14] · скачан: 23 раз
Статус: √ проверено
Размер: 28.1 GB
Как cкачать? Как скачать Битва у Красной скалы 2 через торрент | qTorrent

% Раздел Тема Автор DL S | L
Фильмы [HD 720p, 1080p] (Хороший звук DUB, MVO) [ 13.22 GB ] Битва у Красной скалы 2 / Red Cliff 2 / Chi bi Part II: Jue zhan tian xia [2008 военный история BDRip 1080p многоголосый ] Артронах Скачать
1 | 0
Фильмы 2009 [ 2.17 GB ] Битва у Красной скалы 2 / Chi bi xia: Jue zhan tian xia [2009 военный история ... DVDRip лицензия] boom300 Скачать
1 | 0

28-11-2019 20:33  

Отключить всю рекламу на сайте

27-01-2014 11:31 Битва у Красной скалы 2 Скачать торрент  

Спасибо кепpb.wtf



    Дорогой пользователь! Огромная просьба, поблагодарите релизера, оцените раздачу и оставьте свои комментарий, если Вы скачали Битва у Красной скалы 2 через торрент бесплатно! Внесите свою лепту в развитие PiratBit!
    Комментировать посты могут только пользователи прошедшие не сложную регистрацию
    Показать сообщения:    

    Битва у Красной скалы 2 через торрент
    Скачать бесплатно Битва у Красной скалы 2
    Битва у Красной скалы 2 скачать торрент
    Битва у Красной скалы 2 смотреть онлайн
    Cкачать фильм Битва у Красной скалы 2 бесплатно
    Битва у Красной скалы 2 скачать торрент в хорошем качестве
    Битва у Красной скалы 2 смотреть онлайн бесплатно в хорошем качестве


    Вы не можете начинать темы
    Вы не можете отвечать на сообщения
    Вы не можете редактировать свои сообщения
    Вы не можете удалять свои сообщения
    Вы не можете голосовать в опросах
    Вы не можете прикреплять файлы к сообщениям
    Вы можете скачивать файлы