2 сезон

iTunes

1 сезон

1

iTunes

iTunes

iTunes

1 сезон

RePack

30

ИГРА 18+

pack

ВАЖНО

!!Акция!!

Alien_RageХит недели

RePack

MK11
pack

Забери бонус

RePack

jed

!!Акция!!

Alien_Rage

RePack

fifa19

RePack

Assassins Creed: Odyssey

RePack

NEED FOR SPEED™ PAYBACK

4 сезон

9 сезон

Бесстыжие 9 сезон

Все сериалы

все сериалы на PB.wtf

RePack

FAR CRY 5
  

Мэрайа Мунди и шкатулка Мидаса / The Adventurer: The Curse of the Midas Box (Джонатан Ньюман / Jonathan Newman) [2012, Испания, фэнтези, приключения, семейный, BDRip 1080p,Профессиональный (многоголосый, закадровый) pb.wtf

Мэрайа Мунди и шкатулка Мидаса через торрент pb.wtf

Размер: 9.12 GB | Добавлен: 6 лет 9 мес. назад | Торрент скачан:71 раз
Скачать  

27-01-2014 13:59 Мэрайа Мунди и шкатулка Мидаса Скачать торрент  


Мэрайа Мунди и шкатулка Мидаса / The Adventurer: The Curse of the Midas Box

«The new name for adventure»

  • Год выпуска:2012
  • Страна:Испания
  • Жанр:фэнтези, приключения, семейный

  • Продолжительность: 01:39:06
  • Перевод:Профессиональный (многоголосый, закадровый)

  • Субтитры: Английский-Вшитые отключаемые
    • Режиссер:Джонатан Ньюман / Jonathan Newman

  • В ролях: Майкл Шин (Charity), Лина Хиди (Monica), Кили Хоуз (Catherine Mundi), Йоан Гриффит (Charles Mundi), Сэм Нил (Otto Luger), Анайрин Барнард (Mariah Mundi), Тристан Геммилл (Isambard Black), Дэниэл Вильде (Cleavy), Мелла Каррон (Sacha), Ксавьер Аткинс (Felix), Уилл Пэйн, Оливер Старк (Glocky)
    • Описание:
      Мир семнадцатилетнего Мэрайа Мунди меняется, когда его родители внезапно исчезают, оставив юношу и его брата Феликса на произвол судьбы.

    Бюджет:$25 000 000 / Мировая премьера:10 января 2014
    • Качество:BDRip 1080p
    • Формат: MKV
    • Видео кодек:AVC
    • Аудио кодек:AC3/DTS
    • Видео: AVC, 1920x818 (2.35:1), 11021 kbps, 23,976 fps, 0,293 bpp
    • Аудио №1: русский / AC3 / 5.1 / 48 kHz / 384 kbps / 16 bit ||
    • Аудио №2: английский / DTS / 5.1 / 48 kHz / 1510 kbps / 24 bit

    Код:

    General
    Unique ID                                : 208269776711287135189028903132066148670 (0x9CAF4CC962E4CA4788A3315DA9E6F13E)
    Complete name                            : D:ТорентыThe.Adventurer.The.Curse.of.the.Midas.Box.2013.1080p.BDRip.mkv
    Format                                   : Matroska
    Format version                           : Version 2
    File size                                : 9.12 GiB
    Duration                                 : 1h 39mn
    Overall bit rate                         : 13.2 Mbps
    Encoded date                             : UTC 2014-01-25 13:56:43
    Writing application                      : mkvmerge v5.2.0 ('I can't explain') built on Dec 18 2011 18:12:03
    Writing library                          : libebml v1.2.3 + libmatroska v1.3.0

    Video
    ID                                       : 1
    Format                                   : AVC
    Format/Info                              : Advanced Video Codec
    Format profile                           : High@L4.1
    Format settings, CABAC                   : Yes
    Format settings, ReFrames                : 4 frames
    Codec ID                                 : V_MPEG4/ISO/AVC
    Duration                                 : 1h 39mn
    Bit rate                                 : 11.0 Mbps
    Width                                    : 1 920 pixels
    Height                                   : 818 pixels
    Display aspect ratio                     : 2.35:1
    Frame rate                               : 23.976 fps
    Color space                              : YUV
    Chroma subsampling                       : 4:2:0
    Bit depth                                : 8 bits
    Scan type                                : Progressive
    Bits/(Pixel*Frame)                       : 0.293
    Stream size                              : 7.63 GiB (84%)
    Writing library                          : x264 core 135 r2345 f0c1c53
    Encoding settings                        : cabac=1 / ref=4 / deblock=1:-3:-3 / analyse=0x3:0x133 / me=umh / subme=11 / psy=1 / psy_rd=1.15:0.10 / mixed_ref=1 / me_range=24 / chroma_me=1 / trellis=2 / 8x8dct=1 / cqm=0 / deadzone=21,11 / fast_pskip=0 / chroma_qp_offset=-3 / threads=12 / lookahead_threads=2 / sliced_threads=0 / nr=0 / decimate=0 / interlaced=0 / bluray_compat=0 / constrained_intra=0 / bframes=8 / b_pyramid=2 / b_adapt=2 / b_bias=0 / direct=3 / weightb=1 / open_gop=0 / weightp=2 / keyint=360 / keyint_min=2 / scenecut=40 / intra_refresh=0 / rc=crf / mbtree=0 / crf=17.0 / qcomp=0.70 / qpmin=0 / qpmax=69 / qpstep=4 / ip_ratio=1.20 / pb_ratio=1.20 / aq=1:1.00
    Language                                 : English
    Default                                  : Yes
    Forced                                   : No

    Audio #1
    ID                                       : 2
    Format                                   : AC-3
    Format/Info                              : Audio Coding 3
    Mode extension                           : CM (complete main)
    Codec ID                                 : A_AC3
    Duration                                 : 1h 39mn
    Bit rate mode                            : Constant
    Bit rate                                 : 384 Kbps
    Channel(s)                               : 6 channels
    Channel positions                        : Front: L C R, Side: L R, LFE
    Sampling rate                            : 48.0 KHz
    Bit depth                                : 16 bits
    Compression mode                         : Lossy
    Stream size                              : 272 MiB (3%)
    Title                                    : MVO
    Language                                 : Russian
    Default                                  : Yes
    Forced                                   : No

    Audio #2
    ID                                       : 3
    Format                                   : DTS
    Format/Info                              : Digital Theater Systems
    Codec ID                                 : A_DTS
    Duration                                 : 1h 39mn
    Bit rate mode                            : Constant
    Bit rate                                 : 1 510 Kbps
    Channel(s)                               : 6 channels
    Channel positions                        : Front: L C R, Side: L R, LFE
    Sampling rate                            : 48.0 KHz
    Bit depth                                : 24 bits
    Compression mode                         : Lossy
    Stream size                              : 1.05 GiB (11%)
    Title                                    : Original
    Language                                 : English
    Default                                  : No
    Forced                                   : No

    Text
    ID                                       : 4
    Format                                   : PGS
    Muxing mode                              : zlib
    Codec ID                                 : S_HDMV/PGS
    Codec ID/Info                            : The same subtitle format used on BDs/HD-DVDs
    Language                                 : English
    Default                                  : No
    Forced                                   : No

    Menu
    00:00:00.000                             : en:00:00:00.000
    00:08:30.760                             : en:00:08:30.760
    00:20:06.455                             : en:00:20:06.455
    00:27:59.887                             : en:00:27:59.887
    00:38:42.111                             : en:00:38:42.111
    00:44:18.030                             : en:00:44:18.030
    00:50:11.383                             : en:00:50:11.383
    00:58:18.704                             : en:00:58:18.704
    01:08:02.996                             : en:01:08:02.996
    01:15:33.195                             : en:01:15:33.195
    01:22:20.394                             : en:01:22:20.394
    01:32:54.319                             : en:01:32:54.319


    Скриншоты:

    Трейлеры к фильмам [2014]
    pb.wtf



  • Скачать Мэрайа Мунди и шкатулка Мидаса через торрент http://i58.fastpic.ru/big/2013/0922/31/4683bcd4960801b02604b79f43d30631.png Скачать фильм Мэрайа Мунди и шкатулка Мидаса через торрент бесплантно в хорошем качестве Описание:Мир семнадцатилетнего Мэрайа Мунди меняется, когда его родители внезапно исчезают, оставив юношу и его брата Феликса на произвол ... 10 10 2
    Info! Золотая раздача, скачанное не засчитывается.
    Торрент: Зарегистрирован [2014-01-27 13:59] · скачан: 71 раз
    Статус: √ проверено
    Размер: 9.12 GB
    Как cкачать? Как скачать Мэрайа Мунди и шкатулка Мидаса через торрент | qTorrent

    % Раздел Тема Автор DL S | L
    Фильмы 2013 [DVDrip, WEB-DLRip, HDrip] [ 2.18 GB ] Мэрайа Мунди и шкатулка Мидаса / The Adventurer: The Curse of the Midas Box [2012 BDRip-AVC] MVO [] potroks Скачать
    1 | 0
    Фильмы 2012 [ 1.45 GB ] Мэрайа Мунди и шкатулка Мидаса / The Adventurer: The Curse of the Midas Box [2012 Испания HDRip-AVC MVO [лицензия] Ворон Скачать
    2 | 0
    Фильмы 2013 [DVDrip, WEB-DLRip, HDrip] [ 1.45 GB ] Мэрайа Мунди и шкатулка Мидаса / The Adventurer: The Curse of the Midas Box [2013 WEB-DLRip MVO][] Cталин Скачать
    1 | 0
    Фильмы (DVD фильмы) [ 4.17 GB ] Мэрайа Мунди и шкатулка Мидаса / The Adventurer: The Curse of the Midas Box [2013 DVD5] R5 voovaz Скачать
    1 | 0
    Фильмы 2013 [DVDrip, WEB-DLRip, HDrip] [ 1.37 GB ] Мэрайа Мунди и шкатулка Мидаса / The Adventurer: The Curse of the Midas Box [2013 DVDRipMVO] VintMosina Скачать
    1 | 0

    28-11-2019 20:33  

    Отключить всю рекламу на сайте

      Дорогой пользователь! Огромная просьба, поблагодарите релизера, оцените раздачу и оставьте свои комментарий, если Вы скачали Мэрайа Мунди и шкатулка Мидаса через торрент бесплатно! Внесите свою лепту в развитие PiratBit!
      Комментировать посты могут только пользователи прошедшие не сложную регистрацию
      Показать сообщения:    

      Мэрайа Мунди и шкатулка Мидаса через торрент
      Скачать бесплатно Мэрайа Мунди и шкатулка Мидаса
      Мэрайа Мунди и шкатулка Мидаса скачать торрент
      Мэрайа Мунди и шкатулка Мидаса смотреть онлайн
      Cкачать фильм Мэрайа Мунди и шкатулка Мидаса бесплатно
      Мэрайа Мунди и шкатулка Мидаса скачать торрент в хорошем качестве
      Мэрайа Мунди и шкатулка Мидаса смотреть онлайн бесплатно в хорошем качестве


      Вы не можете начинать темы
      Вы не можете отвечать на сообщения
      Вы не можете редактировать свои сообщения
      Вы не можете удалять свои сообщения
      Вы не можете голосовать в опросах
      Вы не можете прикреплять файлы к сообщениям
      Вы можете скачивать файлы