Ссылка на приватное зеркало нашего сайта всего за 1$. Внимание количество ограничено!!!

2 сезон

iTunes

1 сезон

1

iTunes

iTunes

iTunes

1 сезон

RePack

30

ИГРА 18+

pack

ВАЖНО

!!Акция!!

Alien_RageХит недели

RePack

MK11
pack

Забери бонус

RePack

jed

!!Акция!!

Alien_Rage

RePack

fifa19

RePack

Assassins Creed: Odyssey

RePack

NEED FOR SPEED™ PAYBACK

4 сезон

9 сезон

Бесстыжие 9 сезон

Все сериалы

все сериалы на PB.wtf

RePack

FAR CRY 5
  

Тебе конец / Ты следующий / You're Next(Адам Вингард / Adam Wingard) [2013, США, ужасы, триллер, комедия, BDRip 1080p,Профессиональный [Дубляж - Лицензия] pb.wtf

Тебе конец через торрент pb.wtf

Размер: 5.85 GB | Добавлен: 6 лет 8 мес. назад | Торрент скачан:504 раза
Скачать  

27-01-2014 15:50 Тебе конец Скачать торрент  


Тебе конец / Ты следующий / You're Next

«Вы уверены, что закрыли дверь?»

  • Год выпуска:2013
  • Страна:США
  • Жанр:ужасы, триллер, комедия

  • Продолжительность: 01:34:23
  • Перевод:Профессиональный [Дубляж - Лицензия]

  • Субтитры: Нет
    • Режиссер:Адам Вингард / Adam Wingard

  • В ролях: Шарни Винсон (Erin), Николас Туччи (Felix), Венди Гленн (Zee), Эй Джей Боуэн (Crispian), Джо Сванберг (Drake), Барбара Крэмптон (Aubrey), Роб Моран (Paul), Маргарет Лэни (Kelly), Эми Саймец (Aimee), Тай Уэст (Tariq), Коллинз Холт (Lamb Mask), Саймон Баррет (Tiger Mask)
    • Описание:
      Банда маньяков в звериных масках, вооруженных топорами и арбалетами, вторгается в загородный дом семьи Дэвисон. Жертвы оказываются в западне... Неожиданно среди них находится один достойный противник, способный дать отпор убийцам.


      Премьера (РФ):29 августа 2013 / Мировая премьера:10 сентября 2011
    • Качество:BDRip 1080p
    • Формат: MKV
    • Видео кодек:AVC
    • Аудио кодек:AC3
    • Видео: AVC, 1920x800 (2.40:1), 8433 kbps, 23,976 fps, 0,229 bpp
    • Аудио: русский / AC3 / 5.1 / 48 kHz / 448 kbps / 16 bit ||

    Код:

    General
    Unique ID                                : 177933630678123883373713373137164476679 (0x85DCC54F74C2B5FE9B3E59CEC292A107)
    Complete name                            : D:ТорентыTebe.konec.2013.D.BDRip.1080p__Piratbit.net.mkv
    Format                                   : Matroska
    Format version                           : Version 4 / Version 2
    File size                                : 5.85 GiB
    Duration                                 : 1h 34mn
    Overall bit rate                         : 8 879 Kbps
    Movie name                               : Release for Piratbit.net_R.G. HD-Films
    Encoded date                             : UTC 2014-01-27 15:34:36
    Writing application                      : mkvmerge v6.4.1 ('Omega Point') built on Sep 16 2013 22:05:10
    Writing library                          : libebml v1.3.0 + libmatroska v1.4.1

    Video
    ID                                       : 1
    Format                                   : AVC
    Format/Info                              : Advanced Video Codec
    Format profile                           : High@L4.1
    Format settings, CABAC                   : Yes
    Format settings, ReFrames                : 5 frames
    Codec ID                                 : V_MPEG4/ISO/AVC
    Duration                                 : 1h 34mn
    Bit rate                                 : 8 433 Kbps
    Width                                    : 1 920 pixels
    Height                                   : 800 pixels
    Display aspect ratio                     : 2.40:1
    Frame rate                               : 23.976 fps
    Color space                              : YUV
    Chroma subsampling                       : 4:2:0
    Bit depth                                : 8 bits
    Scan type                                : Progressive
    Bits/(Pixel*Frame)                       : 0.229
    Stream size                              : 5.44 GiB (93%)
    Title                                    : Release for Piratbit.net_R.G. HD-Films
    Writing library                          : x264 core 140 r2377 1ca7bb9
    Encoding settings                        : cabac=1 / ref=5 / deblock=1:0:0 / analyse=0x3:0x133 / me=umh / subme=7 / psy=1 / psy_rd=1.00:0.00 / mixed_ref=1 / me_range=16 / chroma_me=1 / trellis=1 / 8x8dct=1 / cqm=0 / deadzone=21,11 / fast_pskip=0 / chroma_qp_offset=-2 / threads=36 / lookahead_threads=6 / sliced_threads=0 / nr=0 / decimate=1 / interlaced=0 / bluray_compat=0 / constrained_intra=0 / bframes=3 / b_pyramid=2 / b_adapt=1 / b_bias=0 / direct=1 / weightb=1 / open_gop=0 / weightp=2 / keyint=250 / keyint_min=23 / scenecut=40 / intra_refresh=0 / rc_lookahead=40 / rc=2pass / mbtree=1 / bitrate=8433 / ratetol=1.0 / qcomp=0.60 / qpmin=0 / qpmax=69 / qpstep=4 / cplxblur=20.0 / qblur=0.5 / ip_ratio=1.40 / aq=1:1.00
    Language                                 : English
    Default                                  : Yes
    Forced                                   : No

    Audio
    ID                                       : 2
    Format                                   : AC-3
    Format/Info                              : Audio Coding 3
    Mode extension                           : CM (complete main)
    Codec ID                                 : A_AC3
    Duration                                 : 1h 34mn
    Bit rate mode                            : Constant
    Bit rate                                 : 448 Kbps
    Channel(s)                               : 6 channels
    Channel positions                        : Front: L C R, Side: L R, LFE
    Sampling rate                            : 48.0 KHz
    Bit depth                                : 16 bits
    Compression mode                         : Lossy
    Stream size                              : 302 MiB (5%)
    Language                                 : Russian
    Default                                  : Yes
    Forced                                   : No


    Скриншоты:

    Трейлеры к фильмам [2014]


    Релиз подготовлен специально для Piratbit.net. Синхронизация звука и видео by Vetal
    pb.wtf



  • Скачать Тебе конец через торрент http://i58.fastpic.ru/big/2013/0922/31/4683bcd4960801b02604b79f43d30631.png Скачать фильм Тебе конец через торрент бесплантно в хорошем качестве Описание:Банда маньяков в звериных масках, вооруженных топорами и арбалетами, вторгается в загородный дом семьи Дэвисон. Жертвы оказываются ... 9.2 10 15
    Info! Золотая раздача, скачанное не засчитывается.
    Торрент: Зарегистрирован [2014-01-27 15:50] · скачан: 504 раз
    Статус: √ проверено
    Размер: 5.85 GB
    Как cкачать? Как скачать Тебе конец через торрент | qTorrent

    28-11-2019 20:33  

    Отключить всю рекламу на сайте

      Дорогой пользователь! Огромная просьба, поблагодарите релизера, оцените раздачу и оставьте свои комментарий, если Вы скачали Тебе конец через торрент бесплатно! Внесите свою лепту в развитие PiratBit!
      Комментировать посты могут только пользователи прошедшие не сложную регистрацию
      Показать сообщения:    

      Тебе конец через торрент
      Скачать бесплатно Тебе конец
      Тебе конец скачать торрент
      Тебе конец смотреть онлайн
      Cкачать фильм Тебе конец бесплатно
      Тебе конец скачать торрент в хорошем качестве
      Тебе конец смотреть онлайн бесплатно в хорошем качестве


      Вы не можете начинать темы
      Вы не можете отвечать на сообщения
      Вы не можете редактировать свои сообщения
      Вы не можете удалять свои сообщения
      Вы не можете голосовать в опросах
      Вы не можете прикреплять файлы к сообщениям
      Вы можете скачивать файлы