2 сезон

iTunes

MVO

1

2 сезон

iTunes

iTunes

1 сезон

RePack

30

Ultimate

ВАЖНО

ИГРА 18+

pack

RePack

MK11
pack

Легкие деньги

RePack

jed

RePack

fifa19

RePack

RDR2

RePack

NEED FOR SPEED™ PAYBACK

4 сезон

9 сезон

Бесстыжие 9 сезон

Все сериалы

все сериалы на PB.wtf

RePack

FAR CRY 5

Anonymous, добрый вечер, мы не успеваем собрать деньги на оплату серверов за декабрь и январь, помогите нам пожалуйста в это трудное время. В качестве благодарности мы отключим Вам всю рекламу на сайте (укажите свой ник в строку Ваше имя)!

×
  
Magnet ссылка

Армагеддец / The World's End (Эдгар Райт / Edgar Wright) [2013, фантастика, боевик, комедия, HDRip, DUB] [Лизензия / iTunes] pb.wtf

Армагеддец через торрент pb.wtf

Размер: 2.05 GB | Добавлен: 6 лет 11 мес. назад | Торрент скачан:311 раз
Скачать  

28-11-2013 06:19 Армагеддец Скачать торрент  

Армагеддец / The World's End

Год выпуска : 2013
Страна: Великобритания
Жанр: Фантастика, боевик, комедия

Продолжительность: 01:49:07
Перевод: Дубляж [Лицензия / iTunes]
Субтитры: Нет
Режиссер: Эдгар Райт / Edgar Wright
В ролях: Саймон Пегг (Gary King), Ник Фрост (Andy Knightley), Пэдди Консидайн (Steven Prince), Мартин Фриман (Oliver Chamberlain), Эдди Марсан (Peter Page), Розамунд Пайк (Sam Chamberlain), Пирс Броснан (Guy Shepherd), Дэвид Брэдли (Basil), Стив Орам (Motorcycle Policeman), Томас Ло (Young Gary), Захари Бэйлесс (Young Andy), Джаспер Ливайн (Young Steven)
Описание: Их подвиг был бы увековечен в Книге рекордов Гиннесса, если бы они знали, что Гиннесс - это не только пиво. Пятеро друзей ставят себе высокую цель - организовать грандиозный забег по барам. Опасности подстерегают их на каждом шагу: красотка, от которой сходила с ума вся школа, так и тянет налево, в то время как справа надвигается таинственная угроза. В результате алкомарафон плавно переходит в реальный Армагеддец...
Рейтинг

imdb.com: 7.40 (40 116)
MPAA: R - Лицам до 17 лет обязательно присутствие взрослого
Качество: HDRip
Формат: AVI
Видео кодек: XviD
Аудио кодек: AC3
Видео: XviD, 720x304 (2.35:1), 1906 kbps, 23,976 fps
Аудио №1: AC3 / 5.1 / 48 kHz / 384 kbps / 16 bit
Аудио №2: AC3 / 5.1 / 48 kHz / 384 kbps / 16 bit

General
Complete name : H:Armagedonec.2013.HDRip.2.05GB.avi
Format : AVI
Format/Info : Audio Video Interleave
Format profile : OpenDML
File size : 2.05 GiB
Duration : 1h 49mn
Overall bit rate : 2 693 Kbps
Writing application : VirtualDubMod 1.5.10.3 | www.virtualdub-fr.org || (build 2550/release)
Writing library : VirtualDubMod build 2550/release

Video
ID : 0
Format : MPEG-4 Visual
Format profile : Advanced Simple@L5
Format settings, BVOP : 2
Format settings, QPel : No
Format settings, GMC : No warppoints
Format settings, Matrix : Custom
Codec ID : XVID
Codec ID/Hint : XviD
Duration : 1h 49mn
Bit rate : 1 907 Kbps
Width : 720 pixels
Height : 304 pixels
Display aspect ratio : 2.35:1
Frame rate : 23.976 fps
Color space : YUV
Chroma subsampling : 4:2:0
Bit depth : 8 bits
Scan type : Progressive
Compression mode : Lossy
Bits/(Pixel*Frame) : 0.363
Stream size : 1.45 GiB (71%)
Writing library : XviD 1.2.1 (UTC 2008-12-04)

Audio #1
ID : 1
Format : AC-3
Format/Info : Audio Coding 3
Mode extension : CM (complete main)
Codec ID : 2000
Duration : 1h 49mn
Bit rate mode : Constant
Bit rate : 384 Kbps
Channel(s) : 6 channels
Channel positions : Front: L C R, Side: L R, LFE
Sampling rate : 48.0 KHz
Bit depth : 16 bits
Compression mode : Lossy
Stream size : 300 MiB (14%)
Alignment : Split accross interleaves
Interleave, duration : 42 ms (1.00 video frame)
Interleave, preload duration : 500 ms

Audio #2
ID : 2
Format : AC-3
Format/Info : Audio Coding 3
Mode extension : CM (complete main)
Codec ID : 2000
Duration : 1h 49mn
Bit rate mode : Constant
Bit rate : 384 Kbps
Channel(s) : 6 channels
Channel positions : Front: L C R, Side: L R, LFE
Sampling rate : 48.0 KHz
Bit depth : 16 bits
Compression mode : Lossy
Stream size : 300 MiB (14%)
Alignment : Split accross interleaves
Interleave, duration : 42 ms (1.00 video frame)
Interleave, preload duration : 500 ms
pb.wtf



Скачать Армагеддец через торрент http://i5.imageban.ru/out/2013/11/28/e3e35df07822a3734dca9e3731e949f8.png Скачать фильм Армагеддец через торрент бесплантно в хорошем качестве Описание: Их подвиг был бы увековечен в Книге рекордов Гиннесса, если бы они знали, что Гиннесс - это не только пиво. Пятеро друзей ставят ... 9.7 10 32
Info! Золотая раздача, скачанное не засчитывается.
Торрент: Зарегистрирован [2014-01-27 17:58] · скачан: 311 раз
Статус: √ проверено
Размер: 2.05 GB
Как cкачать? Как скачать Армагеддец через торрент | UTorrent



Последний раз редактировалось: лисяра (2013-11-28 11:51), всего редактировалось 1 раз

28-11-2019 20:33  

Отключить всю рекламу на сайте

28-11-2013 07:01 Армагеддец Скачать торрент  

Лизензия yespb.wtf



28-11-2013 08:01 Армагеддец Скачать торрент  

Хорош фильм-это не американский юмор-где пердеть-это смешноpb.wtf



28-11-2013 19:21 Армагеддец Скачать торрент  

такое ололоpb.wtf



12-12-2013 12:17 Армагеддец Скачать торрент  

Дайте скорости!!!pb.wtf



23-12-2013 16:13 Армагеддец Скачать торрент  

полный бред!!!!!!!!!!для детей 12 летpb.wtf



    Дорогой пользователь! Огромная просьба, поблагодарите релизера, оцените раздачу и оставьте свои комментарий, если Вы скачали Армагеддец через торрент бесплатно! Внесите свою лепту в развитие PiratBit!
    Комментировать посты могут только пользователи прошедшие не сложную регистрацию
    Показать сообщения:    

    Армагеддец через торрент
    Скачать бесплатно Армагеддец
    Армагеддец скачать торрент
    Армагеддец смотреть онлайн
    Cкачать фильм Армагеддец бесплатно
    Армагеддец скачать торрент в хорошем качестве
    Армагеддец смотреть онлайн бесплатно в хорошем качестве


    Вы не можете начинать темы
    Вы не можете отвечать на сообщения
    Вы не можете редактировать свои сообщения
    Вы не можете удалять свои сообщения
    Вы не можете голосовать в опросах
    Вы не можете прикреплять файлы к сообщениям
    Вы можете скачивать файлы