Ссылка на приватное зеркало нашего сайта всего за 1$. Внимание количество ограничено!!!

2 сезон

iTunes

1 сезон

1

iTunes

iTunes

iTunes

1 сезон

RePack

30

ИГРА 18+

pack

ВАЖНО

!!Акция!!

Alien_RageХит недели

RePack

MK11
pack

Забери бонус

RePack

jed

!!Акция!!

Alien_Rage

RePack

fifa19

RePack

Assassins Creed: Odyssey

RePack

NEED FOR SPEED™ PAYBACK

4 сезон

9 сезон

Бесстыжие 9 сезон

Все сериалы

все сериалы на PB.wtf

RePack

FAR CRY 5
  

Армагеддец / The World's End (Эдгар Райт / Edgar Wright) [2013, фантастика, боевик, комедия, BDRip 720p, DUB] [Лизензия / iTunes] pb.wtf

Армагеддец через торрент pb.wtf

Размер: 7.3 GB | Добавлен: 6 лет 8 мес. назад | Торрент скачан:188 раз
Скачать  

28-11-2013 06:35 Армагеддец Скачать торрент  

Армагеддец / The World's End

Год выпуска : 2013
Страна: Великобритания
Жанр: Фантастика, боевик, комедия

Продолжительность: 01:49:07
Перевод: Дубляж [Лицензия / iTunes]
Субтитры: Русские, Английские (Full, SDH, SDH-Colored)
Режиссер: Эдгар Райт / Edgar Wright
В ролях: Саймон Пегг (Gary King), Ник Фрост (Andy Knightley), Пэдди Консидайн (Steven Prince), Мартин Фриман (Oliver Chamberlain), Эдди Марсан (Peter Page), Розамунд Пайк (Sam Chamberlain), Пирс Броснан (Guy Shepherd), Дэвид Брэдли (Basil), Стив Орам (Motorcycle Policeman), Томас Ло (Young Gary), Захари Бэйлесс (Young Andy), Джаспер Ливайн (Young Steven)
Описание: Их подвиг был бы увековечен в Книге рекордов Гиннесса, если бы они знали, что Гиннесс - это не только пиво. Пятеро друзей ставят себе высокую цель - организовать грандиозный забег по барам. Опасности подстерегают их на каждом шагу: красотка, от которой сходила с ума вся школа, так и тянет налево, в то время как справа надвигается таинственная угроза. В результате алкомарафон плавно переходит в реальный Армагеддец...
Рейтинг

imdb.com: 7.40 (40 116)
MPAA: R - Лицам до 17 лет обязательно присутствие взрослого
Качество: BDRip 720p
Формат: MKV
Видео кодек: AVC
Аудио кодек: AC3/DTS
Видео: AVC, 1280x544 (2.35:1), 7297 kbps, 23,976 fps
Аудио №1: AC3 / 5.1 / 48 kHz / 384 kbps / 16 bit [Русский, Дубляж / iTunes]
Аудио №2: DTS / 5.1 / 48 kHz / 1510 kbps / 24 bit [Английский]
Аудио №3: AC3 / 2.0 / 48 kHz / 128 kbps / 16 bit [Английский Commentary Cast]
Аудио №4: AC3 / 2.0 / 48 kHz / 128 kbps / 16 bit [Английский Commentary Writers]
Аудио №5: AC3 / 2.0 / 48 kHz / 128 kbps / 16 bit [Английский Commentary Technical]

General
Unique ID : 253675389115375308451176438325654556936 (0xBED81A517003CBFF99CE54DCFA139108)
Complete name : H:Armageddets.2013.BDRip.720p.mkv
Format : Matroska
Format version : Version 2
File size : 7.30 GiB
Duration : 1h 49mn
Overall bit rate : 9 578 Kbps
Movie name : The.World's.End.2013.720p.BluRay.DD5.1.x264-HiDt
Encoded date : UTC 2013-11-27 22:08:46
Writing application : mkvmerge v2.9.9 ('Tutu') built on Nov 25 2009 21:13:32
Writing library : libebml v0.7.9 + libmatroska v0.8.1

Video
ID : 1
Format : AVC
Format/Info : Advanced Video Codec
Format profile : High@L4.1
Format settings, CABAC : Yes
Format settings, ReFrames : 12 frames
Codec ID : V_MPEG4/ISO/AVC
Duration : 1h 49mn
Bit rate : 7 297 Kbps
Width : 1 280 pixels
Height : 544 pixels
Display aspect ratio : 2.35:1
Frame rate : 23.976 fps
Color space : YUV
Chroma subsampling : 4:2:0
Bit depth : 8 bits
Scan type : Progressive
Bits/(Pixel*Frame) : 0.437
Stream size : 5.42 GiB (74%)
Writing library : x264 core 140 r2377 1ca7bb9
Encoding settings : cabac=1 / ref=12 / deblock=1:-3:-3 / analyse=0x3:0x113 / me=tesa / subme=11 / psy=1 / psy_rd=0.95:0.00 / mixed_ref=1 / me_range=32 / chroma_me=1 / trellis=2 / 8x8dct=1 / cqm=0 / deadzone=21,11 / fast_pskip=0 / chroma_qp_offset=-2 / threads=12 / lookahead_threads=2 / sliced_threads=0 / nr=0 / decimate=1 / interlaced=0 / bluray_compat=0 / constrained_intra=0 / bframes=7 / b_pyramid=2 / b_adapt=2 / b_bias=0 / direct=3 / weightb=1 / open_gop=0 / weightp=2 / keyint=240 / keyint_min=23 / scenecut=40 / intra_refresh=0 / rc_lookahead=80 / rc=2pass / mbtree=1 / bitrate=7297 / ratetol=1.0 / qcomp=0.70 / qpmin=0 / qpmax=69 / qpstep=4 / cplxblur=20.0 / qblur=0.5 / vbv_maxrate=40000 / vbv_bufsize=40000 / nal_hrd=none / filler=0 / ip_ratio=1.40 / aq=1:0.78
Language : English
Default : No
Forced : No

Audio #1
ID : 2
Format : AC-3
Format/Info : Audio Coding 3
Mode extension : CM (complete main)
Codec ID : A_AC3
Duration : 1h 49mn
Bit rate mode : Constant
Bit rate : 384 Kbps
Channel(s) : 6 channels
Channel positions : Front: L C R, Side: L R, LFE
Sampling rate : 48.0 KHz
Bit depth : 16 bits
Compression mode : Lossy
Stream size : 300 MiB (4%)
Title : AC3.384Kbps (6ch) Russian (iTunes)
Language : Russian
Default : Yes
Forced : No

Audio #2
ID : 3
Format : DTS
Format/Info : Digital Theater Systems
Codec ID : A_DTS
Duration : 1h 49mn
Bit rate mode : Constant
Bit rate : 1 510 Kbps
Channel(s) : 6 channels
Channel positions : Front: L C R, Side: L R, LFE
Sampling rate : 48.0 KHz
Bit depth : 24 bits
Compression mode : Lossy
Stream size : 1.15 GiB (16%)
Title : DTS.1509.Kbps (6ch) English
Language : English
Default : No
Forced : No

Audio #3
ID : 4
Format : AC-3
Format/Info : Audio Coding 3
Mode extension : CM (complete main)
Codec ID : A_AC3
Duration : 1h 49mn
Bit rate mode : Constant
Bit rate : 128 Kbps
Channel(s) : 2 channels
Channel positions : Front: L R
Sampling rate : 48.0 KHz
Bit depth : 16 bits
Compression mode : Lossy
Stream size : 99.9 MiB (1%)
Title : AC3.128.Kbps (2ch) English.Commentary #1
Language : English
Default : No
Forced : No

Audio #4
ID : 5
Format : AC-3
Format/Info : Audio Coding 3
Mode extension : CM (complete main)
Codec ID : A_AC3
Duration : 1h 49mn
Bit rate mode : Constant
Bit rate : 128 Kbps
Channel(s) : 2 channels
Channel positions : Front: L R
Sampling rate : 48.0 KHz
Bit depth : 16 bits
Compression mode : Lossy
Stream size : 99.9 MiB (1%)
Title : AC3.128.Kbps (2ch) English.Commentary #2
Language : English
Default : No
Forced : No

Audio #5
ID : 6
Format : AC-3
Format/Info : Audio Coding 3
Mode extension : CM (complete main)
Codec ID : A_AC3
Duration : 1h 49mn
Bit rate mode : Constant
Bit rate : 128 Kbps
Channel(s) : 2 channels
Channel positions : Front: L R
Sampling rate : 48.0 KHz
Bit depth : 16 bits
Compression mode : Lossy
Stream size : 99.9 MiB (1%)
Title : AC3.128.Kbps (2ch) English.Commentary #3
Language : English
Default : No
Forced : No

Text #1
ID : 7
Format : UTF-8
Codec ID : S_TEXT/UTF8
Codec ID/Info : UTF-8 Plain Text
Title : Russian (Full)
Language : Russian
Default : No
Forced : No

Text #2
ID : 8
Format : UTF-8
Codec ID : S_TEXT/UTF8
Codec ID/Info : UTF-8 Plain Text
Title : English (Full)
Language : English
Default : Yes
Forced : No

Text #3
ID : 9
Format : UTF-8
Codec ID : S_TEXT/UTF8
Codec ID/Info : UTF-8 Plain Text
Title : English (SDH)
Language : English
Default : No
Forced : No

Text #4
ID : 10
Format : UTF-8
Codec ID : S_TEXT/UTF8
Codec ID/Info : UTF-8 Plain Text
Title : English (SDH-Colored)
Language : English
Default : No
Forced : No

Menu
00:00:00.000 : en:Chapter 01
00:05:38.296 : en:Chapter 02
00:10:33.007 : en:Chapter 03
00:15:34.767 : en:Chapter 04
00:19:56.695 : en:Chapter 05
00:25:23.980 : en:Chapter 06
00:30:07.180 : en:Chapter 07
00:36:09.750 : en:Chapter 08
00:42:40.266 : en:Chapter 09
00:46:17.232 : en:Chapter 10
00:50:20.017 : en:Chapter 11
00:57:20.728 : en:Chapter 12
01:02:29.203 : en:Chapter 13
01:06:30.736 : en:Chapter 14
01:12:17.124 : en:Chapter 15
01:18:37.003 : en:Chapter 16
01:23:51.192 : en:Chapter 17
01:26:45.783 : en:Chapter 18
01:35:16.752 : en:Chapter 19
01:42:20.217 : en:Chapter 20
pb.wtf



Скачать Армагеддец через торрент http://i5.imageban.ru/out/2013/11/28/e3e35df07822a3734dca9e3731e949f8.png Скачать фильм Армагеддец через торрент бесплантно в хорошем качестве Описание: Их подвиг был бы увековечен в Книге рекордов Гиннесса, если бы они знали, что Гиннесс - это не только пиво. Пятеро друзей ставят ... 10 10 20
Info! Золотая раздача, скачанное не засчитывается.
Торрент: Зарегистрирован [2014-01-27 17:59] · скачан: 188 раз
Статус: √ проверено
Размер: 7.3 GB
Как cкачать? Как скачать Армагеддец через торрент | qTorrent

28-11-2019 20:33  

Отключить всю рекламу на сайте

02-12-2013 13:07 Армагеддец Скачать торрент  

Прикольный фильмец, хорошо провел время. Спасибо pb.wtf



    Дорогой пользователь! Огромная просьба, поблагодарите релизера, оцените раздачу и оставьте свои комментарий, если Вы скачали Армагеддец через торрент бесплатно! Внесите свою лепту в развитие PiratBit!
    Комментировать посты могут только пользователи прошедшие не сложную регистрацию
    Показать сообщения:    

    Армагеддец через торрент
    Скачать бесплатно Армагеддец
    Армагеддец скачать торрент
    Армагеддец смотреть онлайн
    Cкачать фильм Армагеддец бесплатно
    Армагеддец скачать торрент в хорошем качестве
    Армагеддец смотреть онлайн бесплатно в хорошем качестве


    Вы не можете начинать темы
    Вы не можете отвечать на сообщения
    Вы не можете редактировать свои сообщения
    Вы не можете удалять свои сообщения
    Вы не можете голосовать в опросах
    Вы не можете прикреплять файлы к сообщениям
    Вы можете скачивать файлы